  0
SECTION
  2
HEADER
  9
$ACADVER
  1
AC1015
  9
$ACADMAINTVER
 70
     6
  9
$DWGCODEPAGE
  3
ANSI_1252
  9
$INSBASE
 10
0.0
 20
0.0
 30
0.0
  9
$EXTMIN
 10
0.0
 20
0.0
 30
0.0
  9
$EXTMAX
 10
1050.000000000001
 20
1485.000000000001
 30
0.0
  9
$LIMMIN
 10
0.0
 20
0.0
  9
$LIMMAX
 10
12.0
 20
9.0
  9
$ORTHOMODE
 70
     0
  9
$REGENMODE
 70
     1
  9
$FILLMODE
 70
     1
  9
$QTEXTMODE
 70
     0
  9
$MIRRTEXT
 70
     1
  9
$LTSCALE
 40
1.0
  9
$ATTMODE
 70
     1
  9
$TEXTSIZE
 40
0.2
  9
$TRACEWID
 40
0.05
  9
$TEXTSTYLE
  7
Standard
  9
$CLAYER
  8
0
  9
$CELTYPE
  6
ByLayer
  9
$CECOLOR
 62
   256
  9
$CELTSCALE
 40
1.0
  9
$DISPSILH
 70
     0
  9
$DIMSCALE
 40
1.0
  9
$DIMASZ
 40
0.18
  9
$DIMEXO
 40
0.0625
  9
$DIMDLI
 40
0.38
  9
$DIMRND
 40
0.0
  9
$DIMDLE
 40
0.0
  9
$DIMEXE
 40
0.18
  9
$DIMTP
 40
0.0
  9
$DIMTM
 40
0.0
  9
$DIMTXT
 40
0.18
  9
$DIMCEN
 40
0.09
  9
$DIMTSZ
 40
0.0
  9
$DIMTOL
 70
     0
  9
$DIMLIM
 70
     0
  9
$DIMTIH
 70
     1
  9
$DIMTOH
 70
     1
  9
$DIMSE1
 70
     0
  9
$DIMSE2
 70
     0
  9
$DIMTAD
 70
     0
  9
$DIMZIN
 70
     0
  9
$DIMBLK
  1

  9
$DIMASO
 70
     1
  9
$DIMSHO
 70
     1
  9
$DIMPOST
  1

  9
$DIMAPOST
  1

  9
$DIMALT
 70
     0
  9
$DIMALTD
 70
     2
  9
$DIMALTF
 40
25.4
  9
$DIMLFAC
 40
1.0
  9
$DIMTOFL
 70
     0
  9
$DIMTVP
 40
0.0
  9
$DIMTIX
 70
     0
  9
$DIMSOXD
 70
     0
  9
$DIMSAH
 70
     0
  9
$DIMBLK1
  1

  9
$DIMBLK2
  1

  9
$DIMSTYLE
  2
Standard
  9
$DIMCLRD
 70
     0
  9
$DIMCLRE
 70
     0
  9
$DIMCLRT
 70
     0
  9
$DIMTFAC
 40
1.0
  9
$DIMGAP
 40
0.09
  9
$DIMJUST
 70
     0
  9
$DIMSD1
 70
     0
  9
$DIMSD2
 70
     0
  9
$DIMTOLJ
 70
     1
  9
$DIMTZIN
 70
     0
  9
$DIMALTZ
 70
     0
  9
$DIMALTTZ
 70
     0
  9
$DIMUPT
 70
     0
  9
$DIMDEC
 70
     4
  9
$DIMTDEC
 70
     4
  9
$DIMALTU
 70
     2
  9
$DIMALTTD
 70
     2
  9
$DIMTXSTY
  7
Standard
  9
$DIMAUNIT
 70
     0
  9
$DIMADEC
 70
     0
  9
$DIMALTRND
 40
0.0
  9
$DIMAZIN
 70
     0
  9
$DIMDSEP
 70
    46
  9
$DIMATFIT
 70
     3
  9
$DIMFRAC
 70
     0
  9
$DIMLDRBLK
  1

  9
$DIMLUNIT
 70
     2
  9
$DIMLWD
 70
    -2
  9
$DIMLWE
 70
    -2
  9
$DIMTMOVE
 70
     0
  9
$LUNITS
 70
     2
  9
$LUPREC
 70
     4
  9
$SKETCHINC
 40
0.1
  9
$FILLETRAD
 40
0.5
  9
$AUNITS
 70
     0
  9
$AUPREC
 70
     0
  9
$MENU
  1
.
  9
$ELEVATION
 40
0.0
  9
$PELEVATION
 40
0.0
  9
$THICKNESS
 40
0.0
  9
$LIMCHECK
 70
     0
  9
$CHAMFERA
 40
0.5
  9
$CHAMFERB
 40
0.5
  9
$CHAMFERC
 40
1.0
  9
$CHAMFERD
 40
0.0
  9
$SKPOLY
 70
     0
  9
$TDCREATE
 40
2456997.441785486
  9
$TDUCREATE
 40
2456997.400118819
  9
$TDUPDATE
 40
2456997.441785845
  9
$TDUUPDATE
 40
2456997.400119178
  9
$TDINDWG
 40
0.0000000116
  9
$TDUSRTIMER
 40
0.0000000116
  9
$USRTIMER
 70
     1
  9
$ANGBASE
 50
0.0
  9
$ANGDIR
 70
     0
  9
$PDMODE
 70
     0
  9
$PDSIZE
 40
0.0
  9
$PLINEWID
 40
0.0
  9
$SPLFRAME
 70
     0
  9
$SPLINETYPE
 70
     6
  9
$SPLINESEGS
 70
     8
  9
$HANDSEED
  5
230
  9
$SURFTAB1
 70
     6
  9
$SURFTAB2
 70
     6
  9
$SURFTYPE
 70
     6
  9
$SURFU
 70
     6
  9
$SURFV
 70
     6
  9
$UCSBASE
  2

  9
$UCSNAME
  2

  9
$UCSORG
 10
0.0
 20
0.0
 30
0.0
  9
$UCSXDIR
 10
1.0
 20
0.0
 30
0.0
  9
$UCSYDIR
 10
0.0
 20
1.0
 30
0.0
  9
$UCSORTHOREF
  2

  9
$UCSORTHOVIEW
 70
     0
  9
$UCSORGTOP
 10
0.0
 20
0.0
 30
0.0
  9
$UCSORGBOTTOM
 10
0.0
 20
0.0
 30
0.0
  9
$UCSORGLEFT
 10
0.0
 20
0.0
 30
0.0
  9
$UCSORGRIGHT
 10
0.0
 20
0.0
 30
0.0
  9
$UCSORGFRONT
 10
0.0
 20
0.0
 30
0.0
  9
$UCSORGBACK
 10
0.0
 20
0.0
 30
0.0
  9
$PUCSBASE
  2

  9
$PUCSNAME
  2

  9
$PUCSORG
 10
0.0
 20
0.0
 30
0.0
  9
$PUCSXDIR
 10
1.0
 20
0.0
 30
0.0
  9
$PUCSYDIR
 10
0.0
 20
1.0
 30
0.0
  9
$PUCSORTHOREF
  2

  9
$PUCSORTHOVIEW
 70
     0
  9
$PUCSORGTOP
 10
0.0
 20
0.0
 30
0.0
  9
$PUCSORGBOTTOM
 10
0.0
 20
0.0
 30
0.0
  9
$PUCSORGLEFT
 10
0.0
 20
0.0
 30
0.0
  9
$PUCSORGRIGHT
 10
0.0
 20
0.0
 30
0.0
  9
$PUCSORGFRONT
 10
0.0
 20
0.0
 30
0.0
  9
$PUCSORGBACK
 10
0.0
 20
0.0
 30
0.0
  9
$USERI1
 70
     0
  9
$USERI2
 70
     0
  9
$USERI3
 70
     0
  9
$USERI4
 70
     0
  9
$USERI5
 70
     0
  9
$USERR1
 40
18.1
  9
$USERR2
 40
0.0
  9
$USERR3
 40
0.0
  9
$USERR4
 40
0.0
  9
$USERR5
 40
0.0
  9
$WORLDVIEW
 70
     1
  9
$SHADEDGE
 70
     3
  9
$SHADEDIF
 70
    70
  9
$TILEMODE
 70
     1
  9
$MAXACTVP
 70
    64
  9
$PINSBASE
 10
0.0
 20
0.0
 30
0.0
  9
$PLIMCHECK
 70
     0
  9
$PEXTMIN
 10
1.00000000000000E+20
 20
1.00000000000000E+20
 30
1.00000000000000E+20
  9
$PEXTMAX
 10
-1.00000000000000E+20
 20
-1.00000000000000E+20
 30
-1.00000000000000E+20
  9
$PLIMMIN
 10
0.0
 20
0.0
  9
$PLIMMAX
 10
12.0
 20
9.0
  9
$UNITMODE
 70
     0
  9
$VISRETAIN
 70
     1
  9
$PLINEGEN
 70
     0
  9
$PSLTSCALE
 70
     1
  9
$TREEDEPTH
 70
  3020
  9
$CMLSTYLE
  2
Standard
  9
$CMLJUST
 70
     0
  9
$CMLSCALE
 40
1.0
  9
$PROXYGRAPHICS
 70
     1
  9
$MEASUREMENT
 70
     1
  9
$CELWEIGHT
370
    -1
  9
$ENDCAPS
280
     0
  9
$JOINSTYLE
280
     0
  9
$LWDISPLAY
290
     0
  9
$INSUNITS
 70
     4
  9
$HYPERLINKBASE
  1

  9
$STYLESHEET
  1

  9
$XEDIT
290
     1
  9
$CEPSNTYPE
380
     0
  9
$PSTYLEMODE
290
     1
  9
$FINGERPRINTGUID
  2
{21DE4470-7F74-40E6-BA89-F6FC58BC8716}
  9
$VERSIONGUID
  2
{FAEB1C32-E019-11D5-929B-00C0DF256EC4}
  9
$EXTNAMES
290
     1
  9
$PSVPSCALE
 40
0.0
  9
$OLESTARTUP
290
     0
  0
ENDSEC
  0
SECTION
  2
CLASSES
  0
CLASS
  1
ACDBDICTIONARYWDFLT
  2
AcDbDictionaryWithDefault
  3
ObjectDBX Classes
 90
        0
280
     0
281
     0
  0
CLASS
  1
VISUALSTYLE
  2
AcDbVisualStyle
  3
ObjectDBX Classes
 90
     4095
280
     0
281
     0
  0
CLASS
  1
MATERIAL
  2
AcDbMaterial
  3
ObjectDBX Classes
 90
     1153
280
     0
281
     0
  0
CLASS
  1
DICTIONARYVAR
  2
AcDbDictionaryVar
  3
ObjectDBX Classes
 90
        0
280
     0
281
     0
  0
CLASS
  1
ACDBPLACEHOLDER
  2
AcDbPlaceHolder
  3
ObjectDBX Classes
 90
        0
280
     0
281
     0
  0
CLASS
  1
LAYOUT
  2
AcDbLayout
  3
ObjectDBX Classes
 90
        0
280
     0
281
     0
  0
ENDSEC
  0
SECTION
  2
TABLES
  0
TABLE
  2
VPORT
  5
8
330
0
100
AcDbSymbolTable
 70
     1
  0
VPORT
  5
29
330
8
100
AcDbSymbolTableRecord
100
AcDbViewportTableRecord
  2
*Active
 70
     0
 10
0.0
 20
0.0
 11
1.0
 21
1.0
 12
525.0000000000005
 22
742.5000000000005
 13
0.0
 23
0.0
 14
0.5
 24
0.5
 15
0.5
 25
0.5
 16
0.0
 26
0.0
 36
1.0
 17
0.0
 27
0.0
 37
0.0
 40
1633.500000000001
 41
1.60267857142857
 42
50.0
 43
0.0
 44
0.0
 50
0.0
 51
0.0
 71
     0
 72
   100
 73
     1
 74
     3
 75
     0
 76
     0
 77
     0
 78
     0
281
     0
 65
     1
110
0.0
120
0.0
130
0.0
111
1.0
121
0.0
131
0.0
112
0.0
122
1.0
132
0.0
 79
     0
146
0.0
  0
ENDTAB
  0
TABLE
  2
LTYPE
  5
5
330
0
100
AcDbSymbolTable
 70
     8
  0
LTYPE
  5
14
330
5
100
AcDbSymbolTableRecord
100
AcDbLinetypeTableRecord
  2
ByBlock
 70
     0
  3

 72
    65
 73
     0
 40
0.0
  0
LTYPE
  5
15
330
5
100
AcDbSymbolTableRecord
100
AcDbLinetypeTableRecord
  2
ByLayer
 70
     0
  3

 72
    65
 73
     0
 40
0.0
  0
LTYPE
  5
16
330
5
100
AcDbSymbolTableRecord
100
AcDbLinetypeTableRecord
  2
Continuous
 70
     0
  3
Solid line
 72
    65
 73
     0
 40
0.0
  0
LTYPE
  5
3F
330
5
100
AcDbSymbolTableRecord
100
AcDbLinetypeTableRecord
  2
DASHED
 70
     0
  3
Dashed
 72
    65
 73
     2
 40
15.0
 49
7.0
 74
     0
 49
-8.0
 74
     0
  0
LTYPE
  5
40
330
5
100
AcDbSymbolTableRecord
100
AcDbLinetypeTableRecord
  2
DOTTED
 70
     0
  3
Dotted
 72
    65
 73
     2
 40
1.0
 49
0.0
 74
     0
 49
-1.0
 74
     0
  0
LTYPE
  5
41
330
5
100
AcDbSymbolTableRecord
100
AcDbLinetypeTableRecord
  2
DOT_CENTER
 70
     0
  3
Dot_Center
 72
    65
 73
     4
 40
14.0
 49
12.0
 74
     0
 49
-1.0
 74
     0
 49
0.0
 74
     0
 49
-1.0
 74
     0
  0
LTYPE
  5
42
330
5
100
AcDbSymbolTableRecord
100
AcDbLinetypeTableRecord
  2
LONG_DASHED
 70
     0
  3
Long_Dashed
 72
    65
 73
     2
 40
15.0
 49
10.0
 74
     0
 49
-5.0
 74
     0
  0
LTYPE
  5
43
330
5
100
AcDbSymbolTableRecord
100
AcDbLinetypeTableRecord
  2
DASH_CENTER
 70
     0
  3
Dash_Center
 72
    65
 73
     4
 40
14.0
 49
11.0
 74
     0
 49
-1.0
 74
     0
 49
1.0
 74
     0
 49
-1.0
 74
     0
  0
LTYPE
  5
44
330
5
100
AcDbSymbolTableRecord
100
AcDbLinetypeTableRecord
  2
PHANTOM
 70
     0
  3
Phantom
 72
    65
 73
     6
 40
13.0
 49
10.0
 74
     0
 49
-1.0
 74
     0
 49
0.0
 74
     0
 49
-1.0
 74
     0
 49
0.0
 74
     0
 49
-1.0
 74
     0
  0
LTYPE
  5
45
330
5
100
AcDbSymbolTableRecord
100
AcDbLinetypeTableRecord
  2
CENTER_DASH_DASH
 70
     0
  3
Center_Dash_Dash
 72
    65
 73
     6
 40
14.0
 49
9.0
 74
     0
 49
-1.0
 74
     0
 49
1.0
 74
     0
 49
-1.0
 74
     0
 49
1.0
 74
     0
 49
-1.0
 74
     0
  0
ENDTAB
  0
TABLE
  2
LAYER
  5
2
330
0
100
AcDbSymbolTable
 70
     2
  0
LAYER
  5
10
330
2
100
AcDbSymbolTableRecord
100
AcDbLayerTableRecord
  2
0
 70
     0
 62
     7
  6
Continuous
370
    -3
390
F
  0
LAYER
  5
46
330
2
100
AcDbSymbolTableRecord
100
AcDbLayerTableRecord
  2
1
 70
     0
 62
     7
  6
Continuous
370
    -3
390
F
  0
ENDTAB
  0
TABLE
  2
STYLE
  5
3
330
0
100
AcDbSymbolTable
 70
     4
  0
STYLE
  5
11
330
3
100
AcDbSymbolTableRecord
100
AcDbTextStyleTableRecord
  2
Standard
 70
     0
 40
0.0
 41
1.0
 50
0.0
 71
     0
 42
0.2
  3
txt
  4

  0
STYLE
  5
9B
330
3
100
AcDbSymbolTableRecord
100
AcDbTextStyleTableRecord
  2
CONVERTER_11
 70
     0
 40
0.0
 41
1.2
 50
0.0
 71
     0
 42
0.2
  3
ARIAL.TTF
  4

  0
STYLE
  5
A4
330
3
100
AcDbSymbolTableRecord
100
AcDbTextStyleTableRecord
  2
CONVERTER_12
 70
     0
 40
0.0
 41
1.38
 50
0.0
 71
     0
 42
0.2
  3
ARIAL.TTF
  4

  0
STYLE
  5
1AA
330
3
100
AcDbSymbolTableRecord
100
AcDbTextStyleTableRecord
  2
CONVERTER_13
 70
     0
 40
0.0
 41
0.95
 50
0.0
 71
     0
 42
0.2
  3
simplex.shx
  4

  0
ENDTAB
  0
TABLE
  2
VIEW
  5
6
330
0
100
AcDbSymbolTable
 70
     0
  0
ENDTAB
  0
TABLE
  2
UCS
  5
7
330
0
100
AcDbSymbolTable
 70
     0
  0
ENDTAB
  0
TABLE
  2
APPID
  5
9
330
0
100
AcDbSymbolTable
 70
     1
  0
APPID
  5
12
330
9
100
AcDbSymbolTableRecord
100
AcDbRegAppTableRecord
  2
ACAD
 70
     0
  0
ENDTAB
  0
TABLE
  2
DIMSTYLE
  5
A
330
0
100
AcDbSymbolTable
 70
     8
100
AcDbDimStyleTable
  0
DIMSTYLE
105
27
330
A
100
AcDbSymbolTableRecord
100
AcDbDimStyleTableRecord
  2
Standard
 70
     0
178
     0
340
11
  0
DIMSTYLE
105
1AE
102
{ACAD_REACTORS
330
1AF
102
}
330
A
100
AcDbSymbolTableRecord
100
AcDbDimStyleTableRecord
  2
ME10_DIM_10
 70
     0
 41
15.0
 42
2.5
 44
5.0
 73
     0
 74
     0
 77
     1
 78
     8
140
15.0
147
10.0
172
     1
173
     1
174
     1
175
     1
176
     2
177
     2
271
     2
178
     4
271
     2
340
1AA
  0
DIMSTYLE
105
1B9
102
{ACAD_REACTORS
330
1BA
102
}
330
A
100
AcDbSymbolTableRecord
100
AcDbDimStyleTableRecord
  2
ME10_DIM_11
 70
     0
 41
15.0
 42
2.5
 44
5.0
 73
     0
 74
     0
 77
     1
 78
     8
140
15.0
147
10.0
172
     1
173
     1
174
     1
175
     1
176
     2
177
     2
271
     2
178
     4
271
     2
340
1AA
  0
DIMSTYLE
105
1C6
102
{ACAD_REACTORS
330
1C7
102
}
330
A
100
AcDbSymbolTableRecord
100
AcDbDimStyleTableRecord
  2
ME10_DIM_12
 70
     0
 41
15.0
 42
2.5
 44
5.0
 73
     0
 74
     0
 77
     1
 78
     8
140
15.0
147
10.0
172
     1
173
     1
174
     1
175
     1
176
     2
177
     2
271
     2
178
     4
271
     2
340
1AA
  0
DIMSTYLE
105
1D1
102
{ACAD_REACTORS
330
1D2
102
}
330
A
100
AcDbSymbolTableRecord
100
AcDbDimStyleTableRecord
  2
ME10_DIM_13
 70
     0
 41
15.0
 42
2.5
 44
5.0
 73
     0
 74
     0
 77
     1
 78
     8
140
15.0
147
10.0
172
     1
173
     1
174
     1
175
     1
176
     2
177
     2
271
     2
178
     4
271
     2
340
1AA
  0
DIMSTYLE
105
1DC
102
{ACAD_REACTORS
330
1DD
102
}
330
A
100
AcDbSymbolTableRecord
100
AcDbDimStyleTableRecord
  2
ME10_DIM_14
 70
     0
 41
15.0
 42
2.5
 44
5.0
 73
     0
 74
     0
 77
     1
 78
     8
140
15.0
147
10.0
172
     1
173
     1
174
     1
175
     1
176
     2
177
     2
271
     2
178
     4
271
     2
340
1AA
  0
DIMSTYLE
105
1E9
102
{ACAD_REACTORS
330
1EA
102
}
330
A
100
AcDbSymbolTableRecord
100
AcDbDimStyleTableRecord
  2
ME10_DIM_15
 70
     0
 41
15.0
 42
2.5
 44
5.0
 73
     0
 74
     0
 77
     1
 78
     8
140
15.0
147
10.0
172
     1
173
     1
174
     1
175
     1
176
     2
177
     2
271
     2
178
     4
271
     2
340
1AA
  0
DIMSTYLE
105
1F6
102
{ACAD_REACTORS
330
1F7
102
}
330
A
100
AcDbSymbolTableRecord
100
AcDbDimStyleTableRecord
  2
ME10_DIM_16
 70
     0
 41
15.0
 42
2.5
 44
5.0
 73
     0
 74
     0
 77
     1
 78
     8
140
15.0
147
10.0
172
     1
173
     1
174
     1
175
     1
176
     2
177
     2
271
     2
178
     4
271
     2
340
1AA
  0
ENDTAB
  0
TABLE
  2
BLOCK_RECORD
  5
1
330
0
100
AcDbSymbolTable
 70
    11
  0
BLOCK_RECORD
  5
1F
330
1
100
AcDbSymbolTableRecord
100
AcDbBlockTableRecord
  2
*Model_Space
340
22
  0
BLOCK_RECORD
  5
1B
330
1
100
AcDbSymbolTableRecord
100
AcDbBlockTableRecord
  2
*Paper_Space
340
1E
  0
BLOCK_RECORD
  5
23
330
1
100
AcDbSymbolTableRecord
100
AcDbBlockTableRecord
  2
*Paper_Space0
340
26
  0
BLOCK_RECORD
  5
47
330
1
100
AcDbSymbolTableRecord
100
AcDbBlockTableRecord
  2
_formato_A4
340
0
102
{BLKREFS
331
4B
102
}
  0
BLOCK_RECORD
  5
4A
330
1
100
AcDbSymbolTableRecord
100
AcDbBlockTableRecord
  2
A4
340
0
102
{BLKREFS
331
4E
102
}
  0
BLOCK_RECORD
  5
1A4
330
1
100
AcDbSymbolTableRecord
100
AcDbBlockTableRecord
  2
*D3
340
0
  0
BLOCK_RECORD
  5
1B0
330
1
100
AcDbSymbolTableRecord
100
AcDbBlockTableRecord
  2
*D4
340
0
  0
BLOCK_RECORD
  5
1BB
330
1
100
AcDbSymbolTableRecord
100
AcDbBlockTableRecord
  2
*D5
340
0
  0
BLOCK_RECORD
  5
1C8
330
1
100
AcDbSymbolTableRecord
100
AcDbBlockTableRecord
  2
*D6
340
0
  0
BLOCK_RECORD
  5
1D3
330
1
100
AcDbSymbolTableRecord
100
AcDbBlockTableRecord
  2
*D7
340
0
  0
BLOCK_RECORD
  5
1DE
330
1
100
AcDbSymbolTableRecord
100
AcDbBlockTableRecord
  2
*D8
340
0
  0
BLOCK_RECORD
  5
1EB
330
1
100
AcDbSymbolTableRecord
100
AcDbBlockTableRecord
  2
*D9
340
0
  0
BLOCK_RECORD
  5
1F8
330
1
100
AcDbSymbolTableRecord
100
AcDbBlockTableRecord
  2
*D10
340
0
102
{BLKREFS
331
200
102
}
  0
ENDTAB
  0
ENDSEC
  0
SECTION
  2
BLOCKS
  0
BLOCK
  5
20
330
1F
100
AcDbEntity
  8
0
100
AcDbBlockBegin
  2
*Model_Space
 70
     0
 10
0.0
 20
0.0
 30
0.0
  3
*Model_Space
  1

  0
ENDBLK
  5
21
330
1F
100
AcDbEntity
  8
0
100
AcDbBlockEnd
  0
BLOCK
  5
1C
330
1B
100
AcDbEntity
 67
     1
  8
0
100
AcDbBlockBegin
  2
*Paper_Space
 70
     0
 10
0.0
 20
0.0
 30
0.0
  3
*Paper_Space
  1

  0
ENDBLK
  5
1D
330
1B
100
AcDbEntity
 67
     1
  8
0
100
AcDbBlockEnd
  0
BLOCK
  5
24
330
23
100
AcDbEntity
  8
0
100
AcDbBlockBegin
  2
*Paper_Space0
 70
     0
 10
0.0
 20
0.0
 30
0.0
  3
*Paper_Space0
  1

  0
ENDBLK
  5
25
330
23
100
AcDbEntity
  8
0
100
AcDbBlockEnd
  0
BLOCK
  5
48
330
47
100
AcDbEntity
  8
0
100
AcDbBlockBegin
  2
_formato_A4
 70
     0
 10
210.0000000000001
 20
0.0
 30
0.0
  3
_formato_A4
  1

  0
LINE
  5
4F
330
47
100
AcDbEntity
  8
1
  6
Continuous
 62
     7
100
AcDbLine
 10
21.00000000000012
 20
20.0
 30
0.0
 11
205.0000000000001
 21
20.0
 31
0.0
  0
LINE
  5
50
330
47
100
AcDbEntity
  8
1
  6
Continuous
 62
     7
100
AcDbLine
 10
21.00000000000012
 20
4.9999999999998
 30
0.0
 11
205.0000000000001
 21
4.9999999999998
 31
0.0
  0
LINE
  5
51
330
47
100
AcDbEntity
  8
1
  6
Continuous
 62
     7
100
AcDbLine
 10
46.00000000000023
 20
35.0
 30
0.0
 11
46.00000000000023
 21
40.0
 31
0.0
  0
LINE
  5
52
330
47
100
AcDbEntity
  8
1
  6
Continuous
 62
     7
100
AcDbLine
 10
28.00000000000012
 20
35.0
 30
0.0
 11
28.00000000000012
 21
40.0
 31
0.0
  0
LINE
  5
53
330
47
100
AcDbEntity
  8
1
  6
Continuous
 62
     7
100
AcDbLine
 10
21.00000000000012
 20
40.0
 30
0.0
 11
205.0000000000001
 21
40.0
 31
0.0
  0
LINE
  5
54
330
47
100
AcDbEntity
  8
1
  6
Continuous
 62
     7
100
AcDbLine
 10
46.00000000000023
 20
30.0
 30
0.0
 11
46.00000000000023
 21
35.0
 31
0.0
  0
LINE
  5
55
330
47
100
AcDbEntity
  8
1
  6
Continuous
 62
     7
100
AcDbLine
 10
28.00000000000012
 20
30.0
 30
0.0
 11
28.00000000000012
 21
35.0
 31
0.0
  0
LINE
  5
56
330
47
100
AcDbEntity
  8
1
  6
Continuous
 62
     7
100
AcDbLine
 10
21.00000000000012
 20
35.0
 30
0.0
 11
205.0000000000001
 21
35.0
 31
0.0
  0
LINE
  5
57
330
47
100
AcDbEntity
  8
1
  6
Continuous
 62
     7
100
AcDbLine
 10
46.00000000000023
 20
25.0
 30
0.0
 11
46.00000000000023
 21
30.0
 31
0.0
  0
LINE
  5
58
330
47
100
AcDbEntity
  8
1
  6
Continuous
 62
     7
100
AcDbLine
 10
28.00000000000012
 20
25.0
 30
0.0
 11
28.00000000000012
 21
30.0
 31
0.0
  0
LINE
  5
59
330
47
100
AcDbEntity
  8
1
  6
Continuous
 62
     7
100
AcDbLine
 10
21.00000000000012
 20
30.0
 30
0.0
 11
205.0000000000001
 21
30.0
 31
0.0
  0
LINE
  5
5A
330
47
100
AcDbEntity
  8
1
  6
Continuous
 62
     7
100
AcDbLine
 10
46.00000000000023
 20
20.0
 30
0.0
 11
46.00000000000023
 21
25.0
 31
0.0
  0
LINE
  5
5B
330
47
100
AcDbEntity
  8
1
  6
Continuous
 62
     7
100
AcDbLine
 10
28.00000000000012
 20
20.0
 30
0.0
 11
28.00000000000012
 21
25.0
 31
0.0
  0
LINE
  5
5C
330
47
100
AcDbEntity
  8
1
  6
Continuous
 62
     7
100
AcDbLine
 10
21.00000000000012
 20
25.0
 30
0.0
 11
205.0000000000001
 21
25.0
 31
0.0
  0
LINE
  5
5D
102
{ACAD_REACTORS
330
A6
102
}
330
47
100
AcDbEntity
  8
1
  6
Continuous
 62
     7
100
AcDbLine
 10
195.8428748399058
 20
10.55800208038031
 30
0.0
 11
194.5095415065727
 21
9.7887713111497
 31
0.0
  0
LINE
  5
5E
102
{ACAD_REACTORS
330
A6
102
}
330
47
100
AcDbEntity
  8
1
  6
Continuous
 62
     7
100
AcDbLine
 10
194.6763006887427
 20
10.65463653264791
 30
0.0
 11
195.5097265375796
 21
11.13545913774621
 31
0.0
  0
LINE
  5
5F
102
{ACAD_REACTORS
330
A6
102
}
330
47
100
AcDbEntity
  8
1
  6
Continuous
 62
     7
100
AcDbLine
 10
194.6763006887427
 20
12.1666666666666
 30
0.0
 11
194.6763006887427
 21
10.65463653264791
 31
0.0
  0
LINE
  5
60
102
{ACAD_REACTORS
330
A6
102
}
330
47
100
AcDbEntity
  8
1
  6
Continuous
 62
     7
100
AcDbLine
 10
195.6763006887427
 20
12.1666666666666
 30
0.0
 11
194.6763006887427
 21
12.1666666666666
 31
0.0
  0
LINE
  5
61
102
{ACAD_REACTORS
330
A6
102
}
330
47
100
AcDbEntity
  8
1
  6
Continuous
 62
     7
100
AcDbLine
 10
194.6763006887427
 20
12.8333333333332
 30
0.0
 11
195.6763006887427
 21
12.8333333333332
 31
0.0
  0
LINE
  5
62
102
{ACAD_REACTORS
330
A6
102
}
330
47
100
AcDbEntity
  8
1
  6
Continuous
 62
     7
100
AcDbLine
 10
194.6763006887427
 20
14.34536346735192
 30
0.0
 11
194.6763006887427
 21
12.8333333333332
 31
0.0
  0
LINE
  5
63
102
{ACAD_REACTORS
330
A6
102
}
330
47
100
AcDbEntity
  8
1
  6
Continuous
 62
     7
100
AcDbLine
 10
195.5097265375796
 20
13.86454086225371
 30
0.0
 11
194.6763006887427
 21
14.34536346735192
 31
0.0
  0
LINE
  5
64
102
{ACAD_REACTORS
330
A6
102
}
330
47
100
AcDbEntity
  8
1
  6
Continuous
 62
     7
100
AcDbLine
 10
194.5095415065727
 20
15.21122868885021
 30
0.0
 11
195.8428748399058
 21
14.44199791961941
 31
0.0
  0
LINE
  5
65
102
{ACAD_REACTORS
330
A7
102
}
330
47
100
AcDbEntity
  8
1
  6
Continuous
 62
     7
100
AcDbLine
 10
187.3429673554095
 20
10.8467306090632
 30
0.0
 11
187.3429673554095
 21
14.1532693909366
 31
0.0
  0
LINE
  5
66
102
{ACAD_REACTORS
330
A7
102
}
330
47
100
AcDbEntity
  8
1
  6
Continuous
 62
     7
100
AcDbLine
 10
188.0096340220761
 20
11.0392519172633
 30
0.0
 11
188.0096340220761
 21
10.8467306090632
 31
0.0
  0
LINE
  5
67
102
{ACAD_REACTORS
330
A7
102
}
330
47
100
AcDbEntity
  8
1
  6
Continuous
 62
     7
100
AcDbLine
 10
188.0096340220761
 20
14.1532693909366
 30
0.0
 11
188.0096340220761
 21
11.0392519172633
 31
0.0
  0
LINE
  5
68
102
{ACAD_REACTORS
330
A8
102
}
330
47
100
AcDbEntity
  8
1
  6
Continuous
 62
     7
100
AcDbLine
 10
191.1763932042462
 20
8.44261746499589
 30
0.0
 11
189.009819053083
 21
9.69256409066699
 31
0.0
  0
LINE
  5
69
102
{ACAD_REACTORS
330
A8
102
}
330
47
100
AcDbEntity
  8
1
  6
Continuous
 62
     7
100
AcDbLine
 10
189.3429673554095
 20
10.2700211480327
 30
0.0
 11
191.5095415065727
 21
9.0200745223616
 31
0.0
  0
LINE
  5
6A
102
{ACAD_REACTORS
330
A8
102
}
330
47
100
AcDbEntity
  8
1
  6
Continuous
 62
     7
100
AcDbLine
 10
189.3429673554095
 20
14.92250016016732
 30
0.0
 11
189.3429673554095
 21
10.2700211480327
 31
0.0
  0
LINE
  5
6B
102
{ACAD_REACTORS
330
A8
102
}
330
47
100
AcDbEntity
  8
1
  6
Continuous
 62
     7
100
AcDbLine
 10
188.6763006887427
 20
10.2700211480325
 30
0.0
 11
188.6763006887427
 21
14.92250016016732
 31
0.0
  0
LINE
  5
6C
102
{ACAD_REACTORS
330
A9
102
}
330
47
100
AcDbEntity
  8
1
  6
Continuous
 62
     7
100
AcDbLine
 10
192.8485336717861
 20
15.8637004182722
 30
0.0
 11
191.6763006887427
 21
13.8333333333332
 31
0.0
  0
LINE
  5
6D
102
{ACAD_REACTORS
330
A9
102
}
330
47
100
AcDbEntity
  8
1
  6
Continuous
 62
     7
100
AcDbLine
 10
193.3429673554095
 20
9.3082690706018
 30
0.0
 11
193.3429673554095
 21
15.73121731203452
 31
0.0
  0
LINE
  5
6E
102
{ACAD_REACTORS
330
A9
102
}
330
47
100
AcDbEntity
  8
1
  6
Continuous
 62
     7
100
AcDbLine
 10
192.6763006887427
 20
12.5
 30
0.0
 11
192.6763006887427
 21
9.3082690706018
 31
0.0
  0
LINE
  5
6F
102
{ACAD_REACTORS
330
A9
102
}
330
47
100
AcDbEntity
  8
1
  6
Continuous
 62
     7
100
AcDbLine
 10
190.6763006887427
 20
10.847585072633
 30
0.0
 11
190.6763006887427
 21
12.5
 31
0.0
  0
LINE
  5
70
102
{ACAD_REACTORS
330
A9
102
}
330
47
100
AcDbEntity
  8
1
  6
Continuous
 62
     7
100
AcDbLine
 10
190.0096340220761
 20
12.5
 30
0.0
 11
190.0096340220761
 21
10.847585072633
 31
0.0
  0
LINE
  5
71
102
{ACAD_REACTORS
330
A9
102
}
330
47
100
AcDbEntity
  8
1
  6
Continuous
 62
     7
100
AcDbLine
 10
190.5040677056996
 20
15.8637004182722
 30
0.0
 11
191.6763006887427
 21
13.8333333333332
 31
0.0
  0
LINE
  5
72
102
{ACAD_REACTORS
330
A9
102
}
330
47
100
AcDbEntity
  8
1
  6
Continuous
 62
     7
100
AcDbLine
 10
190.0096340220761
 20
12.5
 30
0.0
 11
190.0096340220761
 21
15.73121731203452
 31
0.0
  0
LINE
  5
73
330
47
100
AcDbEntity
  8
1
  6
Continuous
 62
     7
100
AcDbLine
 10
191.6763006887427
 20
7.5
 30
0.0
 11
183.2598654136013
 21
12.3556357356585
 31
0.0
  0
LINE
  5
74
330
47
100
AcDbEntity
  8
1
  6
Continuous
 62
     7
100
AcDbLine
 10
200.0927359638843
 20
12.3556357356585
 30
0.0
 11
191.6763006887427
 21
7.5
 31
0.0
  0
LINE
  5
75
330
47
100
AcDbEntity
  8
1
  6
Continuous
 62
     7
100
AcDbLine
 10
191.6763006887427
 20
17.5
 30
0.0
 11
200.0927359638843
 21
12.64436426434131
 31
0.0
  0
LINE
  5
76
330
47
100
AcDbEntity
  8
1
  6
Continuous
 62
     7
100
AcDbLine
 10
183.2598654136013
 20
12.64436426434131
 30
0.0
 11
191.6763006887427
 21
17.5
 31
0.0
  0
LINE
  5
77
102
{ACAD_REACTORS
330
A9
102
}
330
47
100
AcDbEntity
  8
1
  6
Continuous
 62
     7
100
AcDbLine
 10
190.6763006887427
 20
14.23205080756881
 30
0.0
 11
190.6763006887427
 21
12.5
 31
0.0
  0
LINE
  5
78
102
{ACAD_REACTORS
330
A9
102
}
330
47
100
AcDbEntity
  8
1
  6
Continuous
 62
     7
100
AcDbLine
 10
191.5319631214452
 20
12.75
 30
0.0
 11
190.6763006887427
 21
14.23205080756881
 31
0.0
  0
LINE
  5
79
102
{ACAD_REACTORS
330
A9
102
}
330
47
100
AcDbEntity
  8
1
  6
Continuous
 62
     7
100
AcDbLine
 10
192.6763006887427
 20
14.23205080756881
 30
0.0
 11
191.8206382560402
 21
12.75
 31
0.0
  0
LINE
  5
7A
102
{ACAD_REACTORS
330
A9
102
}
330
47
100
AcDbEntity
  8
1
  6
Continuous
 62
     7
100
AcDbLine
 10
192.6763006887427
 20
12.5
 30
0.0
 11
192.6763006887427
 21
14.23205080756881
 31
0.0
  0
LINE
  5
7B
102
{ACAD_REACTORS
330
A6
102
}
330
47
100
AcDbEntity
  8
1
  6
Continuous
 62
     7
100
AcDbLine
 10
194.0096340220762
 20
10.0774998398326
 30
0.0
 11
194.0096340220762
 21
14.92250016016732
 31
0.0
  0
LINE
  5
7C
330
47
100
AcDbEntity
  8
1
  6
Continuous
 62
     7
100
AcDbLine
 10
21.00000000000012
 20
292.0000000000001
 30
0.0
 11
21.00000000000012
 21
4.9999999999998
 31
0.0
  0
LINE
  5
7D
330
47
100
AcDbEntity
  8
1
  6
Continuous
 62
     7
100
AcDbLine
 10
205.0000000000001
 20
292.0000000000001
 30
0.0
 11
21.00000000000012
 21
292.0000000000001
 31
0.0
  0
LINE
  5
7E
330
47
100
AcDbEntity
  8
1
  6
Continuous
 62
     7
100
AcDbLine
 10
205.0000000000001
 20
4.9999999999998
 30
0.0
 11
205.0000000000001
 21
292.0000000000001
 31
0.0
  0
LINE
  5
7F
330
47
100
AcDbEntity
  8
1
  6
Continuous
 62
     7
100
AcDbLine
 10
210.0000000000001
 20
297.0000000000001
 30
0.0
 11
0.0
 21
297.0000000000001
 31
0.0
  0
LINE
  5
80
330
47
100
AcDbEntity
  8
1
  6
Continuous
 62
     7
100
AcDbLine
 10
0.0
 20
297.0000000000001
 30
0.0
 11
0.0
 21
0.0
 31
0.0
  0
LINE
  5
81
330
47
100
AcDbEntity
  8
1
  6
Continuous
 62
     7
100
AcDbLine
 10
0.0
 20
0.0
 30
0.0
 11
210.0000000000001
 21
0.0
 31
0.0
  0
LINE
  5
82
330
47
100
AcDbEntity
  8
1
  6
Continuous
 62
     7
100
AcDbLine
 10
210.0000000000001
 20
0.0
 30
0.0
 11
210.0000000000001
 21
297.0000000000001
 31
0.0
  0
LINE
  5
83
330
47
100
AcDbEntity
  8
1
  6
Continuous
 62
     7
100
AcDbLine
 10
0.0
 20
148.4999999999998
 30
0.0
 11
15.0
 21
148.4999999999998
 31
0.0
  0
LINE
  5
84
330
47
100
AcDbEntity
  8
1
  6
Continuous
 62
     7
100
AcDbLine
 10
21.00000000000012
 20
9.9999999999998
 30
0.0
 11
51.00000000000012
 21
9.9999999999998
 31
0.0
  0
LINE
  5
85
330
47
100
AcDbEntity
  8
1
  6
Continuous
 62
     7
100
AcDbLine
 10
51.00000000000012
 20
20.0
 30
0.0
 11
51.00000000000012
 21
5.0
 31
0.0
  0
LINE
  5
86
330
47
100
AcDbEntity
  8
1
  6
Continuous
 62
     7
100
AcDbLine
 10
178.3526013774855
 20
20.0
 30
0.0
 11
178.3526013774855
 21
5.0
 31
0.0
  0
LINE
  5
87
330
47
100
AcDbEntity
  8
1
  6
Continuous
 62
     7
100
AcDbLine
 10
161.0000000000001
 20
20.0
 30
0.0
 11
161.0000000000001
 21
5.0
 31
0.0
  0
LINE
  5
88
330
47
100
AcDbEntity
  8
1
  6
Continuous
 62
     7
100
AcDbLine
 10
21.00000000000012
 20
20.0
 30
0.0
 11
21.00000000000012
 21
4.9999999999998
 31
0.0
  0
LINE
  5
89
330
47
100
AcDbEntity
  8
1
  6
Continuous
 62
     7
100
AcDbLine
 10
21.00000000000012
 20
14.9999999999998
 30
0.0
 11
51.00000000000012
 21
14.9999999999998
 31
0.0
  0
ARC
  5
8A
102
{ACAD_REACTORS
330
A6
102
}
330
47
100
AcDbEntity
  8
1
  6
Continuous
 62
     7
100
AcDbCircle
 10
195.6763006887427
 20
10.8467306090632
 30
0.0
 40
0.3333333333332953
100
AcDbArc
 50
299.9816393688299
 51
119.9816393688239
  0
ARC
  5
8B
102
{ACAD_REACTORS
330
A6
102
}
330
47
100
AcDbEntity
  8
1
  6
Continuous
 62
     7
100
AcDbCircle
 10
195.6763006887427
 20
12.5
 30
0.0
 40
0.3333333333333997
100
AcDbArc
 50
270.0
 51
90.0
  0
ARC
  5
8C
102
{ACAD_REACTORS
330
A6
102
}
330
47
100
AcDbEntity
  8
1
  6
Continuous
 62
     7
100
AcDbCircle
 10
195.6763006887427
 20
14.1532693909366
 30
0.0
 40
0.3333333333333094
100
AcDbArc
 50
240.0183606311658
 51
60.0183606311632
  0
ARC
  5
8D
102
{ACAD_REACTORS
330
A7
102
}
330
47
100
AcDbEntity
  8
1
  6
Continuous
 62
     7
100
AcDbCircle
 10
187.6763006887427
 20
10.8467306090632
 30
0.0
 40
0.3333333333332007
100
AcDbArc
 50
180.0
 51
0.0
  0
ARC
  5
8E
102
{ACAD_REACTORS
330
A7
102
}
330
47
100
AcDbEntity
  8
1
  6
Continuous
 62
     7
100
AcDbCircle
 10
187.6763006887427
 20
14.1532693909366
 30
0.0
 40
0.3333333333333997
100
AcDbArc
 50
0.0
 51
180.0
  0
ARC
  5
8F
102
{ACAD_REACTORS
330
A8
102
}
330
47
100
AcDbEntity
  8
1
  6
Continuous
 62
     7
100
AcDbCircle
 10
191.3429673554095
 20
8.7313459936787
 30
0.0
 40
0.3333333333333396
100
AcDbArc
 50
240.0183606311294
 51
60.01836063115359
  0
ARC
  5
90
102
{ACAD_REACTORS
330
A8
102
}
330
47
100
AcDbEntity
  8
1
  6
Continuous
 62
     7
100
AcDbCircle
 10
189.0096340220761
 20
14.92250016016732
 30
0.0
 40
0.3333333333333997
100
AcDbArc
 50
0.0
 51
180.0
  0
ARC
  5
91
102
{ACAD_REACTORS
330
A9
102
}
330
47
100
AcDbEntity
  8
1
  6
Continuous
 62
     7
100
AcDbCircle
 10
193.0780011429341
 20
15.73121731203452
 30
0.0
 40
0.2649662124754002
100
AcDbArc
 50
0.0
 51
149.9999999999789
  0
ARC
  5
92
102
{ACAD_REACTORS
330
A9
102
}
330
47
100
AcDbEntity
  8
1
  6
Continuous
 62
     7
100
AcDbCircle
 10
193.0096340220762
 20
9.3082690706018
 30
0.0
 40
0.3333333333334849
100
AcDbArc
 50
180.0
 51
0.0
  0
ARC
  5
93
102
{ACAD_REACTORS
330
A9
102
}
330
47
100
AcDbEntity
  8
1
  6
Continuous
 62
     7
100
AcDbCircle
 10
190.3429673554095
 20
10.847585072633
 30
0.0
 40
0.3333333333333997
100
AcDbArc
 50
180.0
 51
0.0
  0
ARC
  5
94
102
{ACAD_REACTORS
330
A9
102
}
330
47
100
AcDbEntity
  8
1
  6
Continuous
 62
     7
100
AcDbCircle
 10
190.2746002345514
 20
15.73121731203452
 30
0.0
 40
0.2649662124753643
100
AcDbArc
 50
29.9999999999996
 51
180.0
  0
ARC
  5
95
102
{ACAD_REACTORS
330
A6
102
}
330
47
100
AcDbEntity
  8
1
  6
Continuous
 62
     7
100
AcDbCircle
 10
194.3429673554095
 20
10.0774998398326
 30
0.0
 40
0.3333333333333144
100
AcDbArc
 50
180.0
 51
299.9816393688462
  0
ARC
  5
96
102
{ACAD_REACTORS
330
A6
102
}
330
47
100
AcDbEntity
  8
1
  6
Continuous
 62
     7
100
AcDbCircle
 10
194.3429673554095
 20
14.92250016016732
 30
0.0
 40
0.3333333333333521
100
AcDbArc
 50
60.01836063115314
 51
180.0
  0
ARC
  5
97
330
47
100
AcDbEntity
  8
1
  6
Continuous
 62
     7
100
AcDbCircle
 10
200.0094488883026
 20
12.5
 30
0.0
 40
0.1666666666667869
100
AcDbArc
 50
299.9816393688757
 51
60.01836063109172
  0
ARC
  5
98
330
47
100
AcDbEntity
  8
1
  6
Continuous
 62
     7
100
AcDbCircle
 10
183.3431524891829
 20
12.5
 30
0.0
 40
0.1666666666665654
100
AcDbArc
 50
119.9816393688744
 51
240.0183606311582
  0
ARC
  5
99
102
{ACAD_REACTORS
330
A8
102
}
330
47
100
AcDbEntity
  8
1
  6
Continuous
 62
     7
100
AcDbCircle
 10
189.3429673554095
 20
10.2700211480327
 30
0.0
 40
0.6666666666667993
100
AcDbArc
 50
180.0000000000173
 51
240.0183606311395
  0
ARC
  5
9A
102
{ACAD_REACTORS
330
A9
102
}
330
47
100
AcDbEntity
  8
1
  6
Continuous
 62
     7
100
AcDbCircle
 10
191.6763006887427
 20
12.8333333333332
 30
0.0
 40
0.1666666666667043
100
AcDbArc
 50
209.9999999999399
 51
330.0000000000553
  0
MTEXT
  5
9C
330
47
100
AcDbEntity
  8
1
 62
     7
100
AcDbMText
 10
169.6763006887428
 20
10.06063942075599
 30
0.0
 40
4.5
 41
0.0
 71
     5
 72
     1
  1
1:5
  7
CONVERTER_11
 73
     1
 44
1.32052821128451
  0
MTEXT
  5
9D
330
47
100
AcDbEntity
  8
1
 62
     7
100
AcDbMText
 10
169.6763006887428
 20
16.26063942075589
 30
0.0
 40
3.0
 41
0.0
 71
     5
 72
     1
  1
Scale
  7
CONVERTER_11
 73
     1
 44
1.32052821128451
  0
MTEXT
  5
9E
330
47
100
AcDbEntity
  8
1
 62
     7
100
AcDbMText
 10
57.27630068874284
 20
12.5
 30
0.0
 40
4.5
 41
0.0
 71
     4
 72
     1
  1
TM 1145 TB\PModular back plate for TM 16A/32A compact
  7
CONVERTER_11
 73
     1
 44
0.90036014405762
  0
MTEXT
  5
9F
330
47
100
AcDbEntity
  8
1
 62
     7
100
AcDbMText
 10
32.60000000000014
 20
7.4999999999998
 30
0.0
 40
3.0
 41
0.0
 71
     4
 72
     1
  1
Radice
  7
CONVERTER_11
 73
     1
 44
1.32052821128451
  0
MTEXT
  5
A0
330
47
100
AcDbEntity
  8
1
 62
     7
100
AcDbMText
 10
22.00000000000012
 20
7.4999999999998
 30
0.0
 40
3.0
 41
0.0
 71
     4
 72
     1
  1
Sign.
  7
CONVERTER_11
 73
     1
 44
1.32052821128451
  0
MTEXT
  5
A1
330
47
100
AcDbEntity
  8
1
 62
     7
100
AcDbMText
 10
32.60000000000014
 20
12.4999999999998
 30
0.0
 40
3.0
 41
0.0
 71
     4
 72
     1
  1
29/09/11
  7
CONVERTER_11
 73
     1
 44
1.32052821128451
  0
MTEXT
  5
A2
330
47
100
AcDbEntity
  8
1
 62
     7
100
AcDbMText
 10
22.00000000000012
 20
12.4999999999998
 30
0.0
 40
3.0
 41
0.0
 71
     4
 72
     1
  1
Date
  7
CONVERTER_11
 73
     1
 44
1.32052821128451
  0
MTEXT
  5
A3
330
47
100
AcDbEntity
  8
1
 62
     7
100
AcDbMText
 10
16.0
 20
151.4999999999998
 30
0.0
 40
4.0
 41
0.0
 71
     5
 72
     1
  1
Diritti riservati      All rights reserved
  7
CONVERTER_11
 11
0.0
 21
1.0
 31
0.0
 73
     1
 44
1.32052821128451
  0
MTEXT
  5
A5
330
47
100
AcDbEntity
  8
1
 62
     7
100
AcDbMText
 10
36.00000000000012
 20
17.49999999999992
 30
0.0
 40
2.5
 41
0.0
 71
     5
 72
     1
  1
dimensions in mm
  7
CONVERTER_12
 73
     1
 44
0.60024009603842
  0
HATCH
  5
A6
330
47
100
AcDbEntity
  8
1
  6
Continuous
 62
     7
100
AcDbHatch
 10
0.0
 20
0.0
 30
0.0
210
0.0
220
0.0
230
1.0
  2
SOLID
 70
     1
 71
     1
 91
        1
 92
        1
 93
       14
 72
     2
 10
194.3429673554095
 20
14.92250016016732
 40
0.3333333333333521
 50
60.01836063115314
 51
180.0
 73
     1
 72
     1
 10
194.0096340220762
 20
14.92250016016732
 11
194.0096340220762
 21
10.0774998398326
 72
     2
 10
194.3429673554095
 20
10.0774998398326
 40
0.3333333333333144
 50
180.0
 51
299.9816393688462
 73
     1
 72
     1
 10
194.5095415065727
 20
9.788771311149702
 11
195.8428748399058
 21
10.55800208038031
 72
     2
 10
195.6763006887427
 20
10.8467306090632
 40
0.3333333333332953
 50
299.9816393688299
 51
479.9816393688239
 73
     1
 72
     1
 10
195.5097265375796
 20
11.13545913774621
 11
194.6763006887427
 21
10.65463653264791
 72
     1
 10
194.6763006887427
 20
10.65463653264791
 11
194.6763006887427
 21
12.1666666666666
 72
     1
 10
194.6763006887427
 20
12.1666666666666
 11
195.6763006887427
 21
12.1666666666666
 72
     2
 10
195.6763006887427
 20
12.5
 40
0.3333333333333997
 50
270.0
 51
450.0
 73
     1
 72
     1
 10
195.6763006887427
 20
12.8333333333332
 11
194.6763006887427
 21
12.8333333333332
 72
     1
 10
194.6763006887427
 20
12.8333333333332
 11
194.6763006887427
 21
14.34536346735192
 72
     1
 10
194.6763006887427
 20
14.34536346735192
 11
195.5097265375796
 21
13.86454086225371
 72
     2
 10
195.6763006887427
 20
14.1532693909366
 40
0.3333333333333094
 50
240.0183606311658
 51
420.0183606311631
 73
     1
 72
     1
 10
195.8428748399058
 20
14.44199791961941
 11
194.5095415065727
 21
15.21122868885021
 97
       14
330
8C
330
63
330
62
330
61
330
8B
330
60
330
5F
330
5E
330
8A
330
5D
330
95
330
7B
330
96
330
64
 75
     0
 76
     1
 98
        1
 10
0.0
 20
0.0
  0
HATCH
  5
A7
330
47
100
AcDbEntity
  8
1
  6
Continuous
 62
     7
100
AcDbHatch
 10
0.0
 20
0.0
 30
0.0
210
0.0
220
0.0
230
1.0
  2
SOLID
 70
     1
 71
     1
 91
        1
 92
        1
 93
        5
 72
     2
 10
187.6763006887427
 20
14.1532693909366
 40
0.3333333333333997
 50
0.0
 51
180.0
 73
     1
 72
     1
 10
187.3429673554095
 20
14.1532693909366
 11
187.3429673554095
 21
10.8467306090632
 72
     2
 10
187.6763006887427
 20
10.8467306090632
 40
0.3333333333332007
 50
180.0
 51
360.0
 73
     1
 72
     1
 10
188.0096340220761
 20
10.8467306090632
 11
188.0096340220761
 21
11.0392519172633
 72
     1
 10
188.0096340220761
 20
11.0392519172633
 11
188.0096340220761
 21
14.1532693909366
 97
        5
330
8E
330
65
330
8D
330
66
330
67
 75
     0
 76
     1
 98
        1
 10
0.0
 20
0.0
  0
HATCH
  5
A8
330
47
100
AcDbEntity
  8
1
  6
Continuous
 62
     7
100
AcDbHatch
 10
0.0
 20
0.0
 30
0.0
210
0.0
220
0.0
230
1.0
  2
SOLID
 70
     1
 71
     1
 91
        1
 92
        1
 93
        7
 72
     2
 10
189.0096340220761
 20
14.92250016016732
 40
0.3333333333333997
 50
0.0
 51
180.0
 73
     1
 72
     1
 10
188.6763006887427
 20
14.92250016016732
 11
188.6763006887427
 21
10.2700211480325
 72
     2
 10
189.3429673554095
 20
10.2700211480327
 40
0.6666666666667993
 50
180.0000000000173
 51
240.0183606311395
 73
     1
 72
     1
 10
189.009819053083
 20
9.692564090666991
 11
191.1763932042462
 21
8.442617464995891
 72
     2
 10
191.3429673554095
 20
8.731345993678701
 40
0.3333333333333396
 50
240.0183606311294
 51
420.0183606311537
 73
     1
 72
     1
 10
191.5095415065727
 20
9.020074522361597
 11
189.3429673554095
 21
10.2700211480327
 72
     1
 10
189.3429673554095
 20
10.2700211480327
 11
189.3429673554095
 21
14.92250016016732
 97
        7
330
90
330
6B
330
99
330
68
330
8F
330
69
330
6A
 75
     0
 76
     1
 98
        1
 10
0.0
 20
0.0
  0
HATCH
  5
A9
330
47
100
AcDbEntity
  8
1
  6
Continuous
 62
     7
100
AcDbHatch
 10
0.0
 20
0.0
 30
0.0
210
0.0
220
0.0
230
1.0
  2
SOLID
 70
     1
 71
     1
 91
        1
 92
        1
 93
       16
 72
     2
 10
193.0780011429341
 20
15.73121731203452
 40
0.2649662124754002
 50
210.0000000000211
 51
360.0
 73
     0
 72
     1
 10
193.3429673554095
 20
15.73121731203452
 11
193.3429673554095
 21
9.308269070601796
 72
     2
 10
193.0096340220762
 20
9.308269070601796
 40
0.3333333333334849
 50
0.0
 51
180.0
 73
     0
 72
     1
 10
192.6763006887427
 20
9.308269070601796
 11
192.6763006887427
 21
12.5
 72
     1
 10
192.6763006887427
 20
12.5
 11
192.6763006887427
 21
14.23205080756881
 72
     1
 10
192.6763006887427
 20
14.23205080756881
 11
191.8206382560402
 21
12.75
 72
     2
 10
191.6763006887427
 20
12.8333333333332
 40
0.1666666666667043
 50
29.99999999994475
 51
150.0000000000601
 73
     0
 72
     1
 10
191.5319631214452
 20
12.75
 11
190.6763006887427
 21
14.23205080756881
 72
     1
 10
190.6763006887427
 20
14.23205080756881
 11
190.6763006887427
 21
12.5
 72
     1
 10
190.6763006887427
 20
12.5
 11
190.6763006887427
 21
10.847585072633
 72
     2
 10
190.3429673554095
 20
10.847585072633
 40
0.3333333333333997
 50
0.0
 51
180.0
 73
     0
 72
     1
 10
190.0096340220761
 20
10.847585072633
 11
190.0096340220761
 21
12.5
 72
     1
 10
190.0096340220761
 20
12.5
 11
190.0096340220761
 21
15.73121731203452
 72
     2
 10
190.2746002345514
 20
15.73121731203452
 40
0.2649662124753643
 50
180.0
 51
330.0000000000004
 73
     0
 72
     1
 10
190.5040677056996
 20
15.8637004182722
 11
191.6763006887427
 21
13.8333333333332
 72
     1
 10
191.6763006887427
 20
13.8333333333332
 11
192.8485336717861
 21
15.8637004182722
 97
       16
330
71
330
94
330
72
330
70
330
93
330
6F
330
77
330
78
330
9A
330
79
330
7A
330
6E
330
92
330
6D
330
91
330
6C
 75
     0
 76
     1
 98
        1
 10
0.0
 20
0.0
  0
ENDBLK
  5
49
330
47
100
AcDbEntity
  8
0
100
AcDbBlockEnd
  0
BLOCK
  5
4C
330
4A
100
AcDbEntity
  8
0
100
AcDbBlockBegin
  2
A4
 70
     0
 10
1050.000000000001
 20
0.0
 30
0.0
  3
A4
  1

  0
INSERT
  5
4B
330
4A
100
AcDbEntity
  8
1
100
AcDbBlockReference
  2
_formato_A4
 10
1050.0
 20
0.0
 30
0.0
 41
5.0
 42
5.0
 43
5.0
  0
ENDBLK
  5
4D
330
4A
100
AcDbEntity
  8
0
100
AcDbBlockEnd
  0
BLOCK
  5
1AC
330
1A4
100
AcDbEntity
  8
0
100
AcDbBlockBegin
  2
*D3
 70
     1
 10
0.0
 20
0.0
 30
0.0
  3
*D3
  1

  0
LINE
  5
1A5
330
1A4
100
AcDbEntity
  8
1
  6
Continuous
 62
     2
100
AcDbLine
 10
513.7367611582456
 20
1390.371990660495
 30
0.0
 11
513.7367611582456
 21
940.371990660495
 31
0.0
  0
LINE
  5
1A6
330
1A4
100
AcDbEntity
  8
1
  6
Continuous
 62
     2
100
AcDbLine
 10
449.2378272921509
 20
1390.371990660495
 30
0.0
 11
518.7367611582456
 21
1390.371990660495
 31
0.0
  0
LINE
  5
1A7
330
1A4
100
AcDbEntity
  8
1
  6
Continuous
 62
     2
100
AcDbLine
 10
449.2378272921507
 20
940.371990660495
 30
0.0
 11
518.7367611582456
 21
940.371990660495
 31
0.0
  0
SOLID
  5
1A8
330
1A4
100
AcDbEntity
  8
1
 62
     2
100
AcDbTrace
 10
515.7115486220565
 20
1375.371990660495
 30
0.0
 11
511.7619736944347
 21
1375.371990660495
 31
0.0
 12
513.7367611582456
 22
1390.371990660495
 32
0.0
 13
513.7367611582456
 23
1390.371990660495
 33
0.0
  0
SOLID
  5
1A9
330
1A4
100
AcDbEntity
  8
1
 62
     2
100
AcDbTrace
 10
511.7619736944347
 20
955.371990660495
 30
0.0
 11
515.7115486220565
 21
955.371990660495
 31
0.0
 12
513.7367611582456
 22
940.371990660495
 32
0.0
 13
513.7367611582456
 23
940.371990660495
 33
0.0
  0
MTEXT
  5
1AB
330
1A4
100
AcDbEntity
  8
1
 62
     4
100
AcDbMText
 10
503.7367611582456
 20
1147.371990660495
 30
0.0
 40
15.0
 41
0.0
 71
     7
 72
     1
  1
450
  7
CONVERTER_13
 11
0.0
 21
1.0
 31
0.0
 73
     1
 44
0.60024009603842
  0
ENDBLK
  5
1AD
330
1A4
100
AcDbEntity
  8
0
100
AcDbBlockEnd
  0
BLOCK
  5
1B7
330
1B0
100
AcDbEntity
  8
0
100
AcDbBlockBegin
  2
*D4
 70
     1
 10
0.0
 20
0.0
 30
0.0
  3
*D4
  1

  0
LINE
  5
1B1
330
1B0
100
AcDbEntity
  8
1
  6
Continuous
 62
     2
100
AcDbLine
 10
338.7367611582455
 20
880.3719906604948
 30
0.0
 11
453.7367611582455
 21
880.3719906604948
 31
0.0
  0
LINE
  5
1B2
330
1B0
100
AcDbEntity
  8
1
  6
Continuous
 62
     2
100
AcDbLine
 10
338.7367611582455
 20
944.8709245265896
 30
0.0
 11
338.7367611582455
 21
875.3719906604948
 31
0.0
  0
LINE
  5
1B3
330
1B0
100
AcDbEntity
  8
1
  6
Continuous
 62
     2
100
AcDbLine
 10
453.7367611582455
 20
944.8709245265896
 30
0.0
 11
453.7367611582455
 21
875.3719906604948
 31
0.0
  0
SOLID
  5
1B4
330
1B0
100
AcDbEntity
  8
1
 62
     2
100
AcDbTrace
 10
353.7367611582455
 20
882.3467781243057
 30
0.0
 11
353.7367611582455
 21
878.3972031966839
 31
0.0
 12
338.7367611582455
 22
880.3719906604948
 32
0.0
 13
338.7367611582455
 23
880.3719906604948
 33
0.0
  0
SOLID
  5
1B5
330
1B0
100
AcDbEntity
  8
1
 62
     2
100
AcDbTrace
 10
438.7367611582455
 20
878.3972031966839
 30
0.0
 11
438.7367611582455
 21
882.3467781243057
 31
0.0
 12
453.7367611582455
 22
880.3719906604948
 32
0.0
 13
453.7367611582455
 23
880.3719906604948
 33
0.0
  0
MTEXT
  5
1B6
330
1B0
100
AcDbEntity
  8
1
 62
     4
100
AcDbMText
 10
382.7367611582455
 20
890.3719906604948
 30
0.0
 40
15.0
 41
0.0
 71
     7
 72
     1
  1
115
  7
CONVERTER_13
 11
0.9999999999970619
 21
2.424068405545306E-6
 31
0.0
 73
     1
 44
0.60024009603842
  0
ENDBLK
  5
1B8
330
1B0
100
AcDbEntity
  8
0
100
AcDbBlockEnd
  0
BLOCK
  5
1C4
330
1BB
100
AcDbEntity
  8
0
100
AcDbBlockBegin
  2
*D5
 70
     1
 10
0.0
 20
0.0
 30
0.0
  3
*D5
  1

  0
LINE
  5
1BC
330
1BB
100
AcDbEntity
  8
1
  6
Continuous
 62
     2
100
AcDbLine
 10
686.4204058877158
 20
880.3719906604948
 30
0.0
 11
716.4204058877158
 21
880.3719906604948
 31
0.0
  0
LINE
  5
1BD
330
1BB
100
AcDbEntity
  8
1
  6
Continuous
 62
     2
100
AcDbLine
 10
716.4204058877158
 20
880.3719906604948
 30
0.0
 11
734.4204058877156
 21
880.3719906604948
 31
0.0
  0
LINE
  5
1BE
330
1BB
100
AcDbEntity
  8
1
  6
Continuous
 62
     2
100
AcDbLine
 10
734.4204058877156
 20
880.3719906604948
 30
0.0
 11
771.6204058877157
 21
880.3719906604948
 31
0.0
  0
LINE
  5
1BF
330
1BB
100
AcDbEntity
  8
1
  6
Continuous
 62
     2
100
AcDbLine
 10
716.4204058877158
 20
937.8719906604949
 30
0.0
 11
716.4204058877158
 21
875.3719906604948
 31
0.0
  0
LINE
  5
1C0
330
1BB
100
AcDbEntity
  8
1
  6
Continuous
 62
     2
100
AcDbLine
 10
734.4204058877156
 20
942.1169708777315
 30
0.0
 11
734.4204058877156
 21
875.3719906604948
 31
0.0
  0
SOLID
  5
1C1
330
1BB
100
AcDbEntity
  8
1
 62
     2
100
AcDbTrace
 10
701.4204058877158
 20
878.3972031966839
 30
0.0
 11
701.4204058877158
 21
882.3467781243057
 31
0.0
 12
716.4204058877158
 22
880.3719906604948
 32
0.0
 13
716.4204058877158
 23
880.3719906604948
 33
0.0
  0
SOLID
  5
1C2
330
1BB
100
AcDbEntity
  8
1
 62
     2
100
AcDbTrace
 10
749.4204058877156
 20
882.3467781243057
 30
0.0
 11
749.4204058877156
 21
878.3972031966839
 31
0.0
 12
734.4204058877156
 22
880.3719906604948
 32
0.0
 13
734.4204058877156
 23
880.3719906604948
 33
0.0
  0
MTEXT
  5
1C3
330
1BB
100
AcDbEntity
  8
1
 62
     4
100
AcDbMText
 10
753.6204058877157
 20
890.3719906604948
 30
0.0
 40
15.0
 41
0.0
 71
     7
 72
     1
  1
18
  7
CONVERTER_13
 11
0.9999999999970619
 21
2.424068405545306E-6
 31
0.0
 73
     1
 44
0.60024009603842
  0
ENDBLK
  5
1C5
330
1BB
100
AcDbEntity
  8
0
100
AcDbBlockEnd
  0
BLOCK
  5
1CF
330
1C8
100
AcDbEntity
  8
0
100
AcDbBlockBegin
  2
*D6
 70
     1
 10
0.0
 20
0.0
 30
0.0
  3
*D6
  1

  0
LINE
  5
1C9
330
1C8
100
AcDbEntity
  8
1
  6
Continuous
 62
     2
100
AcDbLine
 10
353.7367611582578
 20
223.6467950359508
 30
0.0
 11
438.7367611582577
 21
223.6467950359508
 31
0.0
  0
LINE
  5
1CA
330
1C8
100
AcDbEntity
  8
1
  6
Continuous
 62
     2
100
AcDbLine
 10
353.7367611582578
 20
291.3967950359506
 30
0.0
 11
353.7367611582578
 21
218.6467950359508
 31
0.0
  0
LINE
  5
1CB
330
1C8
100
AcDbEntity
  8
1
  6
Continuous
 62
     2
100
AcDbLine
 10
438.7367611582577
 20
291.3967950359506
 30
0.0
 11
438.7367611582577
 21
218.6467950359508
 31
0.0
  0
SOLID
  5
1CC
330
1C8
100
AcDbEntity
  8
1
 62
     2
100
AcDbTrace
 10
368.7367611582578
 20
225.6215824997617
 30
0.0
 11
368.7367611582578
 21
221.6720075721398
 31
0.0
 12
353.7367611582578
 22
223.6467950359508
 32
0.0
 13
353.7367611582578
 23
223.6467950359508
 33
0.0
  0
SOLID
  5
1CD
330
1C8
100
AcDbEntity
  8
1
 62
     2
100
AcDbTrace
 10
423.7367611582577
 20
221.6720075721398
 30
0.0
 11
423.7367611582577
 21
225.6215824997617
 31
0.0
 12
438.7367611582577
 22
223.6467950359508
 32
0.0
 13
438.7367611582577
 23
223.6467950359508
 33
0.0
  0
MTEXT
  5
1CE
330
1C8
100
AcDbEntity
  8
1
 62
     4
100
AcDbMText
 10
384.2367611582577
 20
233.6467950359508
 30
0.0
 40
15.0
 41
0.0
 71
     7
 72
     1
  1
85
  7
CONVERTER_13
 11
0.9999999999970619
 21
2.424068405545306E-6
 31
0.0
 73
     1
 44
0.60024009603842
  0
ENDBLK
  5
1D0
330
1C8
100
AcDbEntity
  8
0
100
AcDbBlockEnd
  0
BLOCK
  5
1DA
330
1D3
100
AcDbEntity
  8
0
100
AcDbBlockBegin
  2
*D7
 70
     1
 10
0.0
 20
0.0
 30
0.0
  3
*D7
  1

  0
LINE
  5
1D4
330
1D3
100
AcDbEntity
  8
1
  6
Continuous
 62
     2
100
AcDbLine
 10
513.7367611582456
 20
298.6467950359506
 30
0.0
 11
513.7367611582456
 21
718.6467950359505
 31
0.0
  0
LINE
  5
1D5
330
1D3
100
AcDbEntity
  8
1
  6
Continuous
 62
     2
100
AcDbLine
 10
445.9867611582575
 20
298.6467950359506
 30
0.0
 11
518.7367611582456
 21
298.6467950359506
 31
0.0
  0
LINE
  5
1D6
330
1D3
100
AcDbEntity
  8
1
  6
Continuous
 62
     2
100
AcDbLine
 10
445.9867611582575
 20
718.6467950359505
 30
0.0
 11
518.7367611582456
 21
718.6467950359505
 31
0.0
  0
SOLID
  5
1D7
330
1D3
100
AcDbEntity
  8
1
 62
     2
100
AcDbTrace
 10
511.7619736944347
 20
313.6467950359506
 30
0.0
 11
515.7115486220565
 21
313.6467950359506
 31
0.0
 12
513.7367611582456
 22
298.6467950359506
 32
0.0
 13
513.7367611582456
 23
298.6467950359506
 33
0.0
  0
SOLID
  5
1D8
330
1D3
100
AcDbEntity
  8
1
 62
     2
100
AcDbTrace
 10
515.7115486220565
 20
703.6467950359505
 30
0.0
 11
511.7619736944347
 21
703.6467950359505
 31
0.0
 12
513.7367611582456
 22
718.6467950359505
 32
0.0
 13
513.7367611582456
 23
718.6467950359505
 33
0.0
  0
MTEXT
  5
1D9
330
1D3
100
AcDbEntity
  8
1
 62
     4
100
AcDbMText
 10
503.7367611582456
 20
490.6467950359506
 30
0.0
 40
15.0
 41
0.0
 71
     7
 72
     1
  1
420
  7
CONVERTER_13
 11
0.0
 21
1.0
 31
0.0
 73
     1
 44
0.60024009603842
  0
ENDBLK
  5
1DB
330
1D3
100
AcDbEntity
  8
0
100
AcDbBlockEnd
  0
BLOCK
  5
1E7
330
1DE
100
AcDbEntity
  8
0
100
AcDbBlockBegin
  2
*D8
 70
     1
 10
0.0
 20
0.0
 30
0.0
  3
*D8
  1

  0
LINE
  5
1DF
330
1DE
100
AcDbEntity
  8
1
  6
Continuous
 62
     2
100
AcDbLine
 10
513.7367611582456
 20
688.6467950359505
 30
0.0
 11
513.7367611582456
 21
718.6467950359505
 31
0.0
  0
LINE
  5
1E0
330
1DE
100
AcDbEntity
  8
1
  6
Continuous
 62
     2
100
AcDbLine
 10
513.7367611582456
 20
718.6467950359505
 30
0.0
 11
513.7367611582456
 21
733.6467950359506
 31
0.0
  0
LINE
  5
1E1
330
1DE
100
AcDbEntity
  8
1
  6
Continuous
 62
     2
100
AcDbLine
 10
513.7367611582456
 20
733.6467950359506
 30
0.0
 11
513.7367611582456
 21
770.1467950359505
 31
0.0
  0
LINE
  5
1E2
330
1DE
100
AcDbEntity
  8
1
  6
Continuous
 62
     2
100
AcDbLine
 10
445.9867611582575
 20
718.6467950359505
 30
0.0
 11
518.7367611582456
 21
718.6467950359505
 31
0.0
  0
LINE
  5
1E3
330
1DE
100
AcDbEntity
  8
1
  6
Continuous
 62
     2
100
AcDbLine
 10
449.2378272921508
 20
733.6467950359506
 30
0.0
 11
518.7367611582456
 21
733.6467950359506
 31
0.0
  0
SOLID
  5
1E4
330
1DE
100
AcDbEntity
  8
1
 62
     2
100
AcDbTrace
 10
515.7115486220565
 20
703.6467950359505
 30
0.0
 11
511.7619736944347
 21
703.6467950359505
 31
0.0
 12
513.7367611582456
 22
718.6467950359505
 32
0.0
 13
513.7367611582456
 23
718.6467950359505
 33
0.0
  0
SOLID
  5
1E5
330
1DE
100
AcDbEntity
  8
1
 62
     2
100
AcDbTrace
 10
511.7619736944347
 20
748.6467950359506
 30
0.0
 11
515.7115486220565
 21
748.6467950359506
 31
0.0
 12
513.7367611582456
 22
733.6467950359506
 32
0.0
 13
513.7367611582456
 23
733.6467950359506
 33
0.0
  0
MTEXT
  5
1E6
330
1DE
100
AcDbEntity
  8
1
 62
     4
100
AcDbMText
 10
503.7367611582456
 20
752.1467950359505
 30
0.0
 40
15.0
 41
0.0
 71
     7
 72
     1
  1
15
  7
CONVERTER_13
 11
0.0
 21
1.0
 31
0.0
 73
     1
 44
0.60024009603842
  0
ENDBLK
  5
1E8
330
1DE
100
AcDbEntity
  8
0
100
AcDbBlockEnd
  0
BLOCK
  5
1F4
330
1EB
100
AcDbEntity
  8
0
100
AcDbBlockBegin
  2
*D9
 70
     1
 10
0.0
 20
0.0
 30
0.0
  3
*D9
  1

  0
LINE
  5
1EC
330
1EB
100
AcDbEntity
  8
1
  6
Continuous
 62
     2
100
AcDbLine
 10
408.7367611582576
 20
223.6467950359508
 30
0.0
 11
438.7367611582576
 21
223.6467950359508
 31
0.0
  0
LINE
  5
1ED
330
1EB
100
AcDbEntity
  8
1
  6
Continuous
 62
     2
100
AcDbLine
 10
438.7367611582576
 20
223.6467950359508
 30
0.0
 11
453.7367611582456
 21
223.6467950359508
 31
0.0
  0
LINE
  5
1EE
330
1EB
100
AcDbEntity
  8
1
  6
Continuous
 62
     2
100
AcDbLine
 10
453.7367611582456
 20
223.6467950359508
 30
0.0
 11
491.4367611582516
 21
223.6467950359508
 31
0.0
  0
LINE
  5
1EF
330
1EB
100
AcDbEntity
  8
1
  6
Continuous
 62
     2
100
AcDbLine
 10
438.7367611582576
 20
291.3967950359506
 30
0.0
 11
438.7367611582576
 21
218.6467950359508
 31
0.0
  0
LINE
  5
1F0
330
1EB
100
AcDbEntity
  8
1
  6
Continuous
 62
     2
100
AcDbLine
 10
453.7367611582456
 20
288.1457289020454
 30
0.0
 11
453.7367611582456
 21
218.6467950359508
 31
0.0
  0
SOLID
  5
1F1
330
1EB
100
AcDbEntity
  8
1
 62
     2
100
AcDbTrace
 10
423.7367611582576
 20
221.6720075721398
 30
0.0
 11
423.7367611582576
 21
225.6215824997617
 31
0.0
 12
438.7367611582576
 22
223.6467950359508
 32
0.0
 13
438.7367611582576
 23
223.6467950359508
 33
0.0
  0
SOLID
  5
1F2
330
1EB
100
AcDbEntity
  8
1
 62
     2
100
AcDbTrace
 10
468.7367611582456
 20
225.6215824997617
 30
0.0
 11
468.7367611582456
 21
221.6720075721398
 31
0.0
 12
453.7367611582456
 22
223.6467950359508
 32
0.0
 13
453.7367611582456
 23
223.6467950359508
 33
0.0
  0
MTEXT
  5
1F3
330
1EB
100
AcDbEntity
  8
1
 62
     4
100
AcDbMText
 10
473.4367611582516
 20
233.6467950359508
 30
0.0
 40
15.0
 41
0.0
 71
     7
 72
     1
  1
15
  7
CONVERTER_13
 11
0.9999999999970619
 21
2.424068405545306E-6
 31
0.0
 73
     1
 44
0.60024009603842
  0
ENDBLK
  5
1F5
330
1EB
100
AcDbEntity
  8
0
100
AcDbBlockEnd
  0
BLOCK
  5
1FE
330
1F8
100
AcDbEntity
  8
0
100
AcDbBlockBegin
  2
*D10
 70
     1
 10
0.0
 20
0.0
 30
0.0
  3
*D10
  1

  0
LINE
  5
1F9
330
1F8
100
AcDbEntity
  8
1
  6
Continuous
 62
     2
100
AcDbLine
 10
321.8336415757913
 20
350.799914618417
 30
0.0
 11
271.3336415757913
 21
350.799914618417
 31
0.0
  0
LINE
  5
1FA
330
1F8
100
AcDbEntity
  8
1
  6
Continuous
 62
     2
100
AcDbLine
 10
366.7824685482399
 20
277.3205314463069
 30
0.0
 11
321.8336415757913
 21
350.799914618417
 31
0.0
  0
SOLID
  5
1FB
330
1F8
100
AcDbEntity
  8
1
 62
     2
100
AcDbTrace
 10
342.9201724658001
 20
312.5446795722901
 30
0.0
 11
346.2893595047407
 21
314.6056795251126
 31
0.0
 12
352.4321904192595
 22
300.7794213949149
 32
0.0
 13
352.4321904192595
 23
300.7794213949149
 33
0.0
  0
SOLID
  5
1FC
330
1F8
100
AcDbEntity
  8
1
 62
     2
100
AcDbTrace
 10
364.5533498507153
 20
284.7489104996112
 30
0.0
 11
361.1841628117747
 21
282.6879105467887
 31
0.0
 12
355.0413318972559
 22
296.5141686769863
 32
0.0
 13
355.0413318972559
 23
296.5141686769863
 33
0.0
  0
MTEXT
  5
1FD
330
1F8
100
AcDbEntity
  8
1
 62
     4
100
AcDbMText
 10
275.5336415758275
 20
360.7998848023756
 30
0.0
 40
15.0
 41
0.0
 71
     7
 72
     1
  1
\C4;\U+00f8\C4;5
  7
CONVERTER_13
 11
0.9999999999970619
 21
2.424068405545306E-6
 31
0.0
 73
     1
 44
0.60024009603842
  0
ENDBLK
  5
1FF
330
1F8
100
AcDbEntity
  8
0
100
AcDbBlockEnd
  0
ENDSEC
  0
SECTION
  2
ENTITIES
  0
INSERT
  5
4E
330
1F
100
AcDbEntity
  8
0
100
AcDbBlockReference
  2
A4
 10
1050.000000000001
 20
0.0
 30
0.0
 41
1.0
 42
1.0
 43
1.0
  0
LINE
  5
AA
330
1F
100
AcDbEntity
  8
0
  6
Continuous
 62
     7
100
AcDbLine
 10
449.5903145488148
 20
1319.741083810701
 30
0.0
 11
453.2246291238896
 21
1316.106769235626
 31
0.0
  0
LINE
  5
AB
330
1F
100
AcDbEntity
  8
0
  6
Continuous
 62
     7
100
AcDbLine
 10
453.2246291238896
 20
1304.634526349745
 30
0.0
 11
449.5903145488148
 21
1301.00021177467
 31
0.0
  0
LINE
  5
AC
330
1F
100
AcDbEntity
  8
0
  6
Continuous
 62
     7
100
AcDbLine
 10
453.7367611582456
 20
1300.371990660495
 30
0.0
 11
453.7367611582456
 21
1304.422394315389
 31
0.0
  0
LINE
  5
AD
330
1F
100
AcDbEntity
  8
0
  6
Continuous
 62
     7
100
AcDbLine
 10
448.579677537988
 20
1300.871990660495
 30
0.0
 11
448.579677537988
 21
1319.871990660495
 31
0.0
  0
LINE
  5
AE
330
1F
100
AcDbEntity
  8
0
  6
Continuous
 62
     7
100
AcDbLine
 10
448.7367611582215
 20
1319.387530420107
 30
0.0
 11
448.7367611582215
 21
1301.353765165263
 31
0.0
  0
LINE
  5
AF
330
1F
100
AcDbEntity
  8
1
  6
Continuous
 62
     7
100
AcDbLine
 10
453.7367611582456
 20
1300.371990660495
 30
0.0
 11
449.0796965771807
 21
1300.371990660495
 31
0.0
  0
LINE
  5
B0
330
1F
100
AcDbEntity
  8
1
  6
Continuous
 62
     7
100
AcDbLine
 10
453.7367611582456
 20
1320.371990660495
 30
0.0
 11
449.0796965771807
 21
1320.371990660495
 31
0.0
  0
LINE
  5
B1
330
1F
100
AcDbEntity
  8
0
  6
Continuous
 62
     7
100
AcDbLine
 10
453.7367611582456
 20
1316.318901269982
 30
0.0
 11
453.7367611582456
 21
1320.371990660495
 31
0.0
  0
LINE
  5
B2
330
1F
100
AcDbEntity
  8
0
  6
Continuous
 62
     7
100
AcDbLine
 10
338.7367611582457
 20
1320.371990660495
 30
0.0
 11
338.7367611582457
 21
1316.318901269982
 31
0.0
  0
LINE
  5
B3
330
1F
100
AcDbEntity
  8
1
  6
Continuous
 62
     7
100
AcDbLine
 10
343.3938257393106
 20
1320.371990660495
 30
0.0
 11
338.7367611582457
 21
1320.371990660495
 31
0.0
  0
LINE
  5
B4
330
1F
100
AcDbEntity
  8
0
  6
Continuous
 62
     7
100
AcDbLine
 10
338.7367611582457
 20
1300.371990660495
 30
0.0
 11
338.7367611582455
 21
1030.371990660495
 31
0.0
  0
LINE
  5
B5
330
1F
100
AcDbEntity
  8
1
  6
Continuous
 62
     7
100
AcDbLine
 10
343.3938257393106
 20
1300.371990660495
 30
0.0
 11
338.7367611582457
 21
1300.371990660495
 31
0.0
  0
LINE
  5
B6
330
1F
100
AcDbEntity
  8
0
  6
Continuous
 62
     7
100
AcDbLine
 10
338.7367611582455
 20
1030.371990660495
 30
0.0
 11
338.7367611582455
 21
1026.321554183938
 31
0.0
  0
LINE
  5
B7
330
1F
100
AcDbEntity
  8
1
  6
Continuous
 62
     7
100
AcDbLine
 10
343.3938257393104
 20
1030.371990660495
 30
0.0
 11
338.7367611582455
 21
1030.371990660495
 31
0.0
  0
LINE
  5
B8
330
1F
100
AcDbEntity
  8
0
  6
Continuous
 62
     7
100
AcDbLine
 10
338.7367611582455
 20
1010.371990660495
 30
0.0
 11
338.7367611582455
 21
947.3709245265898
 31
0.0
  0
LINE
  5
B9
330
1F
100
AcDbEntity
  8
1
  6
Continuous
 62
     7
100
AcDbLine
 10
343.3938257393104
 20
1010.371990660495
 30
0.0
 11
338.7367611582455
 21
1010.371990660495
 31
0.0
  0
LINE
  5
BA
330
1F
100
AcDbEntity
  8
0
  6
Continuous
 62
     7
100
AcDbLine
 10
453.7367611582456
 20
1030.371990660495
 30
0.0
 11
453.7367611582456
 21
1303.997726591783
 31
0.0
  0
LINE
  5
BB
330
1F
100
AcDbEntity
  8
1
  6
Continuous
 62
     7
100
AcDbLine
 10
449.0796965772048
 20
1030.371990660495
 30
0.0
 11
453.7367611582456
 21
1030.371990660495
 31
0.0
  0
LINE
  5
BC
330
1F
100
AcDbEntity
  8
0
  6
Continuous
 62
     7
100
AcDbLine
 10
453.7367611582456
 20
1010.371990660495
 30
0.0
 11
453.7367611582456
 21
1014.425901312139
 31
0.0
  0
LINE
  5
BD
330
1F
100
AcDbEntity
  8
1
  6
Continuous
 62
     7
100
AcDbLine
 10
449.0796965772048
 20
1010.371990660495
 30
0.0
 11
453.7367611582456
 21
1010.371990660495
 31
0.0
  0
LINE
  5
BE
330
1F
100
AcDbEntity
  8
0
  6
DASHED
 62
     7
100
AcDbLine
 10
345.7356950243403
 20
283.6467950359508
 30
0.0
 11
446.7378272921508
 21
283.6467950359508
 31
0.0
  0
LINE
  5
BF
330
1F
100
AcDbEntity
  8
0
  6
DASHED
 62
     7
100
AcDbLine
 10
446.7378272921509
 20
733.6467950359507
 30
0.0
 11
345.7356950243403
 21
733.6467950359508
 31
0.0
  0
LINE
  5
C0
330
1F
100
AcDbEntity
  8
0
  6
Continuous
 62
     7
100
AcDbLine
 10
716.4204058877158
 20
940.3719906604949
 30
0.0
 11
730.4902155133486
 21
940.6175801010381
 31
0.0
  0
LINE
  5
C1
330
1F
100
AcDbEntity
  8
0
  6
Continuous
 62
     7
100
AcDbLine
 10
735.9291320909344
 20
1206.799224275772
 30
0.0
 11
734.4204058877158
 21
1206.772889361936
 31
0.0
  0
LINE
  5
C2
330
1F
100
AcDbEntity
  8
0
  6
Continuous
 62
     7
100
AcDbLine
 10
732.4204058877158
 20
1322.371990660495
 30
0.0
 11
716.4204058877158
 21
1322.790965405602
 31
0.0
  0
LINE
  5
C3
330
1F
100
AcDbEntity
  8
0
  6
Continuous
 62
     7
100
AcDbLine
 10
732.4204058877158
 20
1304.721990660495
 30
0.0
 11
716.4204058877158
 21
1304.721990660495
 31
0.0
  0
LINE
  5
C4
330
1F
100
AcDbEntity
  8
0
  6
Continuous
 62
     7
100
AcDbLine
 10
732.4204058877158
 20
1320.371990660495
 30
0.0
 11
732.4204058877158
 21
1316.021990660495
 31
0.0
  0
LINE
  5
C5
330
1F
100
AcDbEntity
  8
0
  6
Continuous
 62
     7
100
AcDbLine
 10
732.4204058877158
 20
1320.371990660495
 30
0.0
 11
732.4204058877158
 21
1322.371990660495
 31
0.0
  0
LINE
  5
C6
330
1F
100
AcDbEntity
  8
0
  6
Continuous
 62
     7
100
AcDbLine
 10
732.4204058877158
 20
1300.371990660495
 30
0.0
 11
732.4204058877158
 21
1304.721990660495
 31
0.0
  0
LINE
  5
C7
330
1F
100
AcDbEntity
  8
0
  6
Continuous
 62
     7
100
AcDbLine
 10
716.4204058877158
 20
1322.790965405602
 30
0.0
 11
716.4204058877158
 21
1316.021990660495
 31
0.0
  0
LINE
  5
C8
330
1F
100
AcDbEntity
  8
0
  6
Continuous
 62
     7
100
AcDbLine
 10
716.4204058877158
 20
1305.871990660495
 30
0.0
 11
716.4204058877158
 21
1304.721990660495
 31
0.0
  0
LINE
  5
C9
330
1F
100
AcDbEntity
  8
0
  6
Continuous
 62
     7
100
AcDbLine
 10
732.9465844973715
 20
1320.371990660395
 30
0.0
 11
734.4204058877158
 21
1320.371990660495
 31
0.0
  0
LINE
  5
CA
330
1F
100
AcDbEntity
  8
0
  6
Continuous
 62
     7
100
AcDbLine
 10
734.4204058877158
 20
1206.772889361936
 30
0.0
 11
734.4204058877158
 21
1216.342709621648
 31
0.0
  0
LINE
  5
CB
330
1F
100
AcDbEntity
  8
0
  6
Continuous
 62
     7
100
AcDbLine
 10
734.4204058877158
 20
1320.371990660495
 30
0.0
 11
734.4204058877158
 21
1300.371990660495
 31
0.0
  0
LINE
  5
CC
330
1F
100
AcDbEntity
  8
0
  6
Continuous
 62
     7
100
AcDbLine
 10
716.4204058877158
 20
1316.021990660495
 30
0.0
 11
716.4204058877158
 21
1314.871990660495
 31
0.0
  0
LINE
  5
CD
330
1F
100
AcDbEntity
  8
0
  6
Continuous
 62
     7
100
AcDbLine
 10
716.4204058877158
 20
1316.021990660495
 30
0.0
 11
732.4204058877158
 21
1316.021990660495
 31
0.0
  0
LINE
  5
CE
330
1F
100
AcDbEntity
  8
0
  6
Continuous
 62
     7
100
AcDbLine
 10
716.4204058877158
 20
1304.721990660495
 30
0.0
 11
716.4204058877158
 21
1297.953015915388
 31
0.0
  0
LINE
  5
CF
330
1F
100
AcDbEntity
  8
0
  6
Continuous
 62
     7
100
AcDbLine
 10
735.9291320909344
 20
1216.316374707812
 30
0.0
 11
734.4204058877158
 21
1216.342709621648
 31
0.0
  0
LINE
  5
D0
330
1F
100
AcDbEntity
  8
0
  6
Continuous
 62
     7
100
AcDbLine
 10
732.4204058877158
 20
1300.371990660495
 30
0.0
 11
734.4204058877158
 21
1300.371990660495
 31
0.0
  0
LINE
  5
D1
330
1F
100
AcDbEntity
  8
0
  6
Continuous
 62
     7
100
AcDbLine
 10
716.4204058877158
 20
1297.953015915388
 30
0.0
 11
716.4204058877158
 21
1032.790965405602
 31
0.0
  0
LINE
  5
D2
330
1F
100
AcDbEntity
  8
0
  6
Continuous
 62
     7
100
AcDbLine
 10
732.4204058877158
 20
1298.371990660495
 30
0.0
 11
732.4204058877158
 21
1300.371990660495
 31
0.0
  0
LINE
  5
D3
330
1F
100
AcDbEntity
  8
0
  6
Continuous
 62
     7
100
AcDbLine
 10
716.4204058877158
 20
1305.871990660495
 30
0.0
 11
722.9204058877158
 21
1305.871990660495
 31
0.0
  0
LINE
  5
D4
330
1F
100
AcDbEntity
  8
0
  6
Continuous
 62
     7
100
AcDbLine
 10
734.4204058877158
 20
1216.342709621648
 30
0.0
 11
734.4204058877158
 21
1300.371990660495
 31
0.0
  0
LINE
  5
D5
330
1F
100
AcDbEntity
  8
0
  6
Continuous
 62
     7
100
AcDbLine
 10
722.9204058877158
 20
1314.871990660495
 30
0.0
 11
716.4204058877158
 21
1314.871990660495
 31
0.0
  0
LINE
  5
D6
330
1F
100
AcDbEntity
  8
0
  6
Continuous
 62
     7
100
AcDbLine
 10
722.9204058877158
 20
1305.871990660495
 30
0.0
 11
722.9204058877158
 21
1314.871990660495
 31
0.0
  0
LINE
  5
D7
330
1F
100
AcDbEntity
  8
0
  6
Continuous
 62
     7
100
AcDbLine
 10
732.9465844973715
 20
1320.371990660395
 30
0.0
 11
732.4204058877158
 21
1320.371990660495
 31
0.0
  0
LINE
  5
D8
330
1F
100
AcDbEntity
  8
0
  6
Continuous
 62
     7
100
AcDbLine
 10
716.4204058877158
 20
1297.953015915388
 30
0.0
 11
732.4204058877158
 21
1298.371990660495
 31
0.0
  0
LINE
  5
D9
330
1F
100
AcDbEntity
  8
0
  6
Continuous
 62
     7
100
AcDbLine
 10
716.4204058877158
 20
1007.953015915388
 30
0.0
 11
732.4204058877156
 21
1008.371990660495
 31
0.0
  0
LINE
  5
DA
330
1F
100
AcDbEntity
  8
0
  6
Continuous
 62
     7
100
AcDbLine
 10
732.4204058877156
 20
1032.371990660495
 30
0.0
 11
716.4204058877158
 21
1032.790965405602
 31
0.0
  0
LINE
  5
DB
330
1F
100
AcDbEntity
  8
0
  6
Continuous
 62
     7
100
AcDbLine
 10
716.4204058877158
 20
1014.721990660495
 30
0.0
 11
732.4204058877156
 21
1014.721990660495
 31
0.0
  0
LINE
  5
DC
330
1F
100
AcDbEntity
  8
0
  6
Continuous
 62
     7
100
AcDbLine
 10
716.4204058877158
 20
1026.021990660495
 30
0.0
 11
732.4204058877156
 21
1026.021990660495
 31
0.0
  0
LINE
  5
DD
330
1F
100
AcDbEntity
  8
0
  6
Continuous
 62
     7
100
AcDbLine
 10
716.4204058877158
 20
1014.721990660495
 30
0.0
 11
716.4204058877158
 21
1015.871990660495
 31
0.0
  0
LINE
  5
DE
330
1F
100
AcDbEntity
  8
0
  6
Continuous
 62
     7
100
AcDbLine
 10
716.4204058877158
 20
1015.871990660495
 30
0.0
 11
722.9204058877156
 21
1015.871990660495
 31
0.0
  0
LINE
  5
DF
330
1F
100
AcDbEntity
  8
0
  6
Continuous
 62
     7
100
AcDbLine
 10
716.4204058877158
 20
1007.953015915388
 30
0.0
 11
716.4204058877158
 21
1014.721990660495
 31
0.0
  0
LINE
  5
E0
330
1F
100
AcDbEntity
  8
0
  6
Continuous
 62
     7
100
AcDbLine
 10
722.9204058877156
 20
1024.871990660495
 30
0.0
 11
716.4204058877158
 21
1024.871990660495
 31
0.0
  0
LINE
  5
E1
330
1F
100
AcDbEntity
  8
0
  6
Continuous
 62
     7
100
AcDbLine
 10
716.4204058877158
 20
1024.871990660495
 30
0.0
 11
716.4204058877158
 21
1026.021990660495
 31
0.0
  0
LINE
  5
E2
330
1F
100
AcDbEntity
  8
0
  6
Continuous
 62
     7
100
AcDbLine
 10
716.4204058877158
 20
1032.790965405602
 30
0.0
 11
716.4204058877158
 21
1026.021990660495
 31
0.0
  0
LINE
  5
E3
330
1F
100
AcDbEntity
  8
0
  6
Continuous
 62
     7
100
AcDbLine
 10
722.9204058877156
 20
1015.871990660495
 30
0.0
 11
722.9204058877156
 21
1024.871990660495
 31
0.0
  0
LINE
  5
E4
330
1F
100
AcDbEntity
  8
0
  6
Continuous
 62
     7
100
AcDbLine
 10
716.4204058877158
 20
1007.953015915388
 30
0.0
 11
716.4204058877158
 21
940.3719906604949
 31
0.0
  0
LINE
  5
E5
330
1F
100
AcDbEntity
  8
0
  6
Continuous
 62
     7
100
AcDbLine
 10
732.4204058877156
 20
1030.371990660495
 30
0.0
 11
732.4204058877156
 21
1026.021990660495
 31
0.0
  0
LINE
  5
E6
330
1F
100
AcDbEntity
  8
0
  6
Continuous
 62
     7
100
AcDbLine
 10
732.4204058877156
 20
1010.371990660495
 30
0.0
 11
732.4204058877156
 21
1014.721990660495
 31
0.0
  0
LINE
  5
E7
330
1F
100
AcDbEntity
  8
0
  6
Continuous
 62
     7
100
AcDbLine
 10
732.4204058877156
 20
1008.371990660495
 30
0.0
 11
732.4204058877156
 21
1010.371990660495
 31
0.0
  0
LINE
  5
E8
330
1F
100
AcDbEntity
  8
0
  6
Continuous
 62
     7
100
AcDbLine
 10
732.4204058877156
 20
1030.371990660495
 30
0.0
 11
732.4204058877156
 21
1032.371990660495
 31
0.0
  0
LINE
  5
E9
330
1F
100
AcDbEntity
  8
0
  6
Continuous
 62
     7
100
AcDbLine
 10
716.4204058877158
 20
1390.371990660495
 30
0.0
 11
730.4902155134496
 21
1390.12640121995
 31
0.0
  0
LINE
  5
EA
330
1F
100
AcDbEntity
  8
0
  6
Continuous
 62
     7
100
AcDbLine
 10
716.4204058877158
 20
1390.371990660495
 30
0.0
 11
716.4204058877158
 21
1322.790965405602
 31
0.0
  0
LINE
  5
EB
330
1F
100
AcDbEntity
  8
0
  6
Continuous
 62
     7
100
AcDbLine
 10
734.4204058877156
 20
1030.371990660495
 30
0.0
 11
732.4204058877156
 21
1030.371990660495
 31
0.0
  0
LINE
  5
EC
330
1F
100
AcDbEntity
  8
0
  6
Continuous
 62
     7
100
AcDbLine
 10
734.4204058877156
 20
1010.371990660495
 30
0.0
 11
732.4204058877156
 21
1010.371990660495
 31
0.0
  0
LINE
  5
ED
330
1F
100
AcDbEntity
  8
0
  6
Continuous
 62
     7
100
AcDbLine
 10
734.4204058877158
 20
1386.127010444122
 30
0.0
 11
734.4204058877158
 21
1360.342709621643
 31
0.0
  0
LINE
  5
EE
330
1F
100
AcDbEntity
  8
0
  6
Continuous
 62
     7
100
AcDbLine
 10
734.4204058877156
 20
1010.371990660495
 30
0.0
 11
734.4204058877156
 21
944.6169708777315
 31
0.0
  0
LINE
  5
EF
330
1F
100
AcDbEntity
  8
0
  6
Continuous
 62
     7
100
AcDbLine
 10
734.4204058877156
 20
1030.371990660495
 30
0.0
 11
734.4204058877156
 21
1010.371990660495
 31
0.0
  0
LINE
  5
F0
330
1F
100
AcDbEntity
  8
0
  6
Continuous
 62
     7
100
AcDbLine
 10
734.4204058877156
 20
1030.371990660495
 30
0.0
 11
734.4204058877158
 21
1206.772889361936
 31
0.0
  0
LINE
  5
F1
330
1F
100
AcDbEntity
  8
0
  6
Continuous
 62
     7
100
AcDbLine
 10
736.4204058877158
 20
1207.29914812335
 30
0.0
 11
736.4204058877158
 21
1215.816450860234
 31
0.0
  0
LINE
  5
F2
330
1F
100
AcDbEntity
  8
0
  6
Continuous
 62
     7
100
AcDbLine
 10
446.737827292151
 20
1390.371990660495
 30
0.0
 11
345.7356950243404
 21
1390.371990660495
 31
0.0
  0
LINE
  5
F3
330
1F
100
AcDbEntity
  8
0
  6
Continuous
 62
     7
100
AcDbLine
 10
338.7367611582455
 20
1014.42201452085
 30
0.0
 11
338.7367611582455
 21
1010.371990660495
 31
0.0
  0
LINE
  5
F4
330
1F
100
AcDbEntity
  8
0
  6
Continuous
 62
     7
100
AcDbLine
 10
453.7367611582456
 20
1026.313364431834
 30
0.0
 11
453.7367611582456
 21
1030.371990660495
 31
0.0
  0
LINE
  5
F5
330
1F
100
AcDbEntity
  8
0
  6
Continuous
 62
     7
100
AcDbLine
 10
453.7367611582456
 20
947.3709245265898
 30
0.0
 11
453.7367611582456
 21
1010.371990660495
 31
0.0
  0
LINE
  5
F6
330
1F
100
AcDbEntity
  8
0
  6
Continuous
 62
     7
100
AcDbLine
 10
453.7367611582457
 20
1383.3730567944
 30
0.0
 11
453.7367611582456
 21
1320.371990660495
 31
0.0
  0
LINE
  5
F7
330
1F
100
AcDbEntity
  8
0
  6
Continuous
 62
     7
100
AcDbLine
 10
394.7367611582578
 20
1372.582350141069
 30
0.0
 11
397.7367611582578
 21
1372.582350141069
 31
0.0
  0
LINE
  5
F8
330
1F
100
AcDbEntity
  8
0
  6
Continuous
 62
     7
100
AcDbLine
 10
352.2367611582582
 20
1372.582350141069
 30
0.0
 11
355.2367611582582
 21
1372.582350141069
 31
0.0
  0
LINE
  5
F9
330
1F
100
AcDbEntity
  8
0
  6
Continuous
 62
     7
100
AcDbLine
 10
441.5264016776835
 20
953.8719906604949
 30
0.0
 11
441.5264016776835
 21
956.8719906604949
 31
0.0
  0
LINE
  5
FA
330
1F
100
AcDbEntity
  8
0
  6
Continuous
 62
     7
100
AcDbLine
 10
448.7367611582456
 20
1011.357272162037
 30
0.0
 11
448.7367611582456
 21
1029.381993581935
 31
0.0
  0
LINE
  5
FB
330
1F
100
AcDbEntity
  8
0
  6
Continuous
 62
     7
100
AcDbLine
 10
449.5903145488389
 20
1029.735546972528
 30
0.0
 11
453.2246291238896
 21
1026.101232397478
 31
0.0
  0
LINE
  5
FC
330
1F
100
AcDbEntity
  8
0
  6
Continuous
 62
     7
100
AcDbLine
 10
453.2246291238896
 20
1014.638033346495
 30
0.0
 11
449.5903145488389
 21
1011.003718771444
 31
0.0
  0
LINE
  5
FD
330
1F
100
AcDbEntity
  8
0
  6
Continuous
 62
     7
100
AcDbLine
 10
393.447120638832
 20
956.8719906604949
 30
0.0
 11
393.447120638832
 21
953.8719906604949
 31
0.0
  0
LINE
  5
FE
330
1F
100
AcDbEntity
  8
0
  6
Continuous
 62
     7
100
AcDbLine
 10
435.947120638832
 20
956.8719906604949
 30
0.0
 11
435.947120638832
 21
953.8719906604949
 31
0.0
  0
LINE
  5
FF
330
1F
100
AcDbEntity
  8
0
  6
Continuous
 62
     7
100
AcDbLine
 10
399.0264016776833
 20
953.8719906604949
 30
0.0
 11
399.0264016776833
 21
956.8719906604949
 31
0.0
  0
LINE
  5
100
330
1F
100
AcDbEntity
  8
0
  6
Continuous
 62
     7
100
AcDbLine
 10
343.7367611582698
 20
1301.353765165263
 30
0.0
 11
343.7367611582698
 21
1319.387530420107
 31
0.0
  0
LINE
  5
101
330
1F
100
AcDbEntity
  8
0
  6
Continuous
 62
     7
100
AcDbLine
 10
343.8938447785034
 20
1029.871990660495
 30
0.0
 11
343.8938447785034
 21
1010.871990660495
 31
0.0
  0
LINE
  5
102
330
1F
100
AcDbEntity
  8
0
  6
Continuous
 62
     7
100
AcDbLine
 10
448.5796775380121
 20
1010.871990660495
 30
0.0
 11
448.5796775380121
 21
1029.871990660495
 31
0.0
  0
LINE
  5
103
330
1F
100
AcDbEntity
  8
0
  6
Continuous
 62
     7
100
AcDbLine
 10
343.8938447785034
 20
1319.871990660495
 30
0.0
 11
343.8938447785034
 21
1300.871990660495
 31
0.0
  0
LINE
  5
104
330
1F
100
AcDbEntity
  8
0
  6
Continuous
 62
     7
100
AcDbLine
 10
343.7367611582696
 20
1011.353385370724
 30
0.0
 11
343.7367611582696
 21
1029.390183334063
 31
0.0
  0
LINE
  5
105
330
1F
100
AcDbEntity
  8
0
  6
Continuous
 62
     7
100
AcDbLine
 10
338.7367611582457
 20
1304.422394315389
 30
0.0
 11
338.7367611582457
 21
1300.371990660495
 31
0.0
  0
LINE
  5
106
330
1F
100
AcDbEntity
  8
0
  6
Continuous
 62
     7
100
AcDbLine
 10
338.7367611582458
 20
1383.3730567944
 30
0.0
 11
338.7367611582457
 21
1320.371990660495
 31
0.0
  0
LINE
  5
107
330
1F
100
AcDbEntity
  8
0
  6
Continuous
 62
     7
100
AcDbLine
 10
394.7367611582578
 20
1378.161631179921
 30
0.0
 11
397.7367611582578
 21
1378.161631179921
 31
0.0
  0
LINE
  5
108
330
1F
100
AcDbEntity
  8
0
  6
Continuous
 62
     7
100
AcDbLine
 10
355.2367611582582
 20
1378.161631179921
 30
0.0
 11
352.2367611582582
 21
1378.161631179921
 31
0.0
  0
LINE
  5
109
330
1F
100
AcDbEntity
  8
0
  6
Continuous
 62
     7
100
AcDbLine
 10
339.2488931926015
 20
1026.109422149581
 30
0.0
 11
342.8832077676765
 21
1029.743736724656
 31
0.0
  0
LINE
  5
10A
330
1F
100
AcDbEntity
  8
0
  6
Continuous
 62
     7
100
AcDbLine
 10
342.8832077676764
 20
1010.999831980131
 30
0.0
 11
339.2488931926015
 21
1014.634146555206
 31
0.0
  0
LINE
  5
10B
330
1F
100
AcDbEntity
  8
0
  6
Continuous
 62
     7
100
AcDbLine
 10
342.8832077676765
 20
1301.00021177467
 30
0.0
 11
339.2488931926017
 21
1304.634526349745
 31
0.0
  0
LINE
  5
10C
330
1F
100
AcDbEntity
  8
0
  6
Continuous
 62
     7
100
AcDbLine
 10
339.2488931926017
 20
1316.106769235626
 30
0.0
 11
342.8832077676765
 21
1319.741083810701
 31
0.0
  0
LINE
  5
10D
330
1F
100
AcDbEntity
  8
0
  6
Continuous
 62
     7
100
AcDbLine
 10
345.7356950243403
 20
940.3719906604949
 30
0.0
 11
446.7378272921508
 21
940.3719906604949
 31
0.0
  0
LINE
  5
10E
330
1F
100
AcDbEntity
  8
0
  6
Continuous
 62
     7
100
AcDbLine
 10
350.947120638832
 20
956.8719906604949
 30
0.0
 11
350.947120638832
 21
953.8719906604949
 31
0.0
  0
LINE
  5
10F
330
1F
100
AcDbEntity
  8
0
  6
Continuous
 62
     7
100
AcDbLine
 10
437.2367611582578
 20
1372.582350141069
 30
0.0
 11
440.2367611582578
 21
1372.582350141069
 31
0.0
  0
LINE
  5
110
330
1F
100
AcDbEntity
  8
0
  6
Continuous
 62
     7
100
AcDbLine
 10
440.2367611582578
 20
1378.161631179921
 30
0.0
 11
437.2367611582578
 21
1378.161631179921
 31
0.0
  0
LINE
  5
111
330
1F
100
AcDbEntity
  8
0
  6
Continuous
 62
     7
100
AcDbLine
 10
356.5264016776835
 20
953.8719906604949
 30
0.0
 11
356.5264016776835
 21
956.8719906604949
 31
0.0
  0
LINE
  5
112
102
{ACAD_REACTORS
330
201
102
}
330
1F
100
AcDbEntity
  8
1
  6
Continuous
 62
     2
100
AcDbLine
 10
376.5537690728229
 20
1373.555115540369
 30
0.0
 11
376.5537690728229
 21
1377.188865780621
 31
0.0
  0
LINE
  5
113
102
{ACAD_REACTORS
330
201
102
}
330
1F
100
AcDbEntity
  8
1
  6
Continuous
 62
     2
100
AcDbLine
 10
377.9286996861953
 20
1373.91549222078
 30
0.0
 11
376.9286996861953
 21
1373.338569143857
 31
0.0
  0
LINE
  5
114
102
{ACAD_REACTORS
330
201
102
}
330
1F
100
AcDbEntity
  8
1
  6
Continuous
 62
     2
100
AcDbLine
 10
377.0537690728229
 20
1373.987968059981
 30
0.0
 11
377.6788384594506
 21
1374.348585013805
 31
0.0
  0
LINE
  5
115
102
{ACAD_REACTORS
330
201
102
}
330
1F
100
AcDbEntity
  8
1
  6
Continuous
 62
     2
100
AcDbLine
 10
377.0537690728229
 20
1375.121990660495
 30
0.0
 11
377.0537690728229
 21
1373.987968059981
 31
0.0
  0
LINE
  5
116
102
{ACAD_REACTORS
330
201
102
}
330
1F
100
AcDbEntity
  8
1
  6
Continuous
 62
     2
100
AcDbLine
 10
377.8037690728229
 20
1375.121990660495
 30
0.0
 11
377.0537690728229
 21
1375.121990660495
 31
0.0
  0
LINE
  5
117
102
{ACAD_REACTORS
330
201
102
}
330
1F
100
AcDbEntity
  8
1
  6
Continuous
 62
     2
100
AcDbLine
 10
377.0537690728229
 20
1375.621990660495
 30
0.0
 11
377.8037690728229
 21
1375.621990660495
 31
0.0
  0
LINE
  5
118
102
{ACAD_REACTORS
330
201
102
}
330
1F
100
AcDbEntity
  8
1
  6
Continuous
 62
     2
100
AcDbLine
 10
377.0537690728229
 20
1376.756013261009
 30
0.0
 11
377.0537690728229
 21
1375.621990660495
 31
0.0
  0
LINE
  5
119
102
{ACAD_REACTORS
330
201
102
}
330
1F
100
AcDbEntity
  8
1
  6
Continuous
 62
     2
100
AcDbLine
 10
377.6788384594506
 20
1376.395396307185
 30
0.0
 11
377.0537690728229
 21
1376.756013261009
 31
0.0
  0
LINE
  5
11A
102
{ACAD_REACTORS
330
201
102
}
330
1F
100
AcDbEntity
  8
1
  6
Continuous
 62
     2
100
AcDbLine
 10
376.9286996861953
 20
1377.405412177133
 30
0.0
 11
377.9286996861953
 21
1376.82848910021
 31
0.0
  0
LINE
  5
11B
102
{ACAD_REACTORS
330
204
102
}
330
1F
100
AcDbEntity
  8
1
  6
Continuous
 62
     2
100
AcDbLine
 10
371.5537690728229
 20
1374.132038617292
 30
0.0
 11
371.5537690728229
 21
1376.611942703697
 31
0.0
  0
LINE
  5
11C
102
{ACAD_REACTORS
330
204
102
}
330
1F
100
AcDbEntity
  8
1
  6
Continuous
 62
     2
100
AcDbLine
 10
372.0537690728229
 20
1374.276429598443
 30
0.0
 11
372.0537690728229
 21
1374.132038617292
 31
0.0
  0
LINE
  5
11D
102
{ACAD_REACTORS
330
204
102
}
330
1F
100
AcDbEntity
  8
1
  6
Continuous
 62
     2
100
AcDbLine
 10
372.0537690728229
 20
1376.611942703697
 30
0.0
 11
372.0537690728229
 21
1374.276429598443
 31
0.0
  0
LINE
  5
11E
102
{ACAD_REACTORS
330
202
102
}
330
1F
100
AcDbEntity
  8
1
  6
Continuous
 62
     2
100
AcDbLine
 10
374.4288384594506
 20
1372.328953759242
 30
0.0
 11
372.8039078460781
 21
1373.266413728495
 31
0.0
  0
LINE
  5
11F
102
{ACAD_REACTORS
330
202
102
}
330
1F
100
AcDbEntity
  8
1
  6
Continuous
 62
     2
100
AcDbLine
 10
373.0537690728229
 20
1373.699506521519
 30
0.0
 11
374.6786996861953
 21
1372.762046552266
 31
0.0
  0
LINE
  5
120
102
{ACAD_REACTORS
330
202
102
}
330
1F
100
AcDbEntity
  8
1
  6
Continuous
 62
     2
100
AcDbLine
 10
373.0537690728229
 20
1377.188865780621
 30
0.0
 11
373.0537690728229
 21
1373.699506521519
 31
0.0
  0
LINE
  5
121
102
{ACAD_REACTORS
330
202
102
}
330
1F
100
AcDbEntity
  8
1
  6
Continuous
 62
     2
100
AcDbLine
 10
372.5537690728229
 20
1373.699506521519
 30
0.0
 11
372.5537690728229
 21
1377.188865780621
 31
0.0
  0
LINE
  5
122
102
{ACAD_REACTORS
330
203
102
}
330
1F
100
AcDbEntity
  8
1
  6
Continuous
 62
     2
100
AcDbLine
 10
375.6829438101053
 20
1377.87169275346
 30
0.0
 11
374.8037690728229
 21
1376.371990660495
 31
0.0
  0
LINE
  5
123
102
{ACAD_REACTORS
330
203
102
}
330
1F
100
AcDbEntity
  8
1
  6
Continuous
 62
     2
100
AcDbLine
 10
376.0537690728229
 20
1372.978192463446
 30
0.0
 11
376.0537690728229
 21
1377.772330423782
 31
0.0
  0
LINE
  5
124
102
{ACAD_REACTORS
330
203
102
}
330
1F
100
AcDbEntity
  8
1
  6
Continuous
 62
     2
100
AcDbLine
 10
375.5537690728229
 20
1375.371990660495
 30
0.0
 11
375.5537690728229
 21
1372.978192463446
 31
0.0
  0
LINE
  5
125
102
{ACAD_REACTORS
330
203
102
}
330
1F
100
AcDbEntity
  8
1
  6
Continuous
 62
     2
100
AcDbLine
 10
374.0537690728229
 20
1374.132679464969
 30
0.0
 11
374.0537690728229
 21
1375.371990660495
 31
0.0
  0
LINE
  5
126
102
{ACAD_REACTORS
330
203
102
}
330
1F
100
AcDbEntity
  8
1
  6
Continuous
 62
     2
100
AcDbLine
 10
373.5537690728229
 20
1375.371990660495
 30
0.0
 11
373.5537690728229
 21
1374.132679464969
 31
0.0
  0
LINE
  5
127
102
{ACAD_REACTORS
330
203
102
}
330
1F
100
AcDbEntity
  8
1
  6
Continuous
 62
     2
100
AcDbLine
 10
373.9245943355405
 20
1377.87169275346
 30
0.0
 11
374.8037690728229
 21
1376.371990660495
 31
0.0
  0
LINE
  5
128
102
{ACAD_REACTORS
330
203
102
}
330
1F
100
AcDbEntity
  8
1
  6
Continuous
 62
     2
100
AcDbLine
 10
373.5537690728229
 20
1375.371990660495
 30
0.0
 11
373.5537690728229
 21
1377.772330423782
 31
0.0
  0
LINE
  5
129
330
1F
100
AcDbEntity
  8
1
  6
Continuous
 62
     2
100
AcDbLine
 10
374.8037690728229
 20
1371.621990660495
 30
0.0
 11
368.4914426164668
 21
1375.263717462239
 31
0.0
  0
LINE
  5
12A
330
1F
100
AcDbEntity
  8
1
  6
Continuous
 62
     2
100
AcDbLine
 10
381.1160955291791
 20
1375.263717462239
 30
0.0
 11
374.8037690728229
 21
1371.621990660495
 31
0.0
  0
LINE
  5
12B
330
1F
100
AcDbEntity
  8
1
  6
Continuous
 62
     2
100
AcDbLine
 10
374.8037690728228
 20
1379.098917439756
 30
0.0
 11
381.1160955291791
 21
1375.480263858751
 31
0.0
  0
LINE
  5
12C
330
1F
100
AcDbEntity
  8
1
  6
Continuous
 62
     2
100
AcDbLine
 10
368.4914426164668
 20
1375.480263858751
 30
0.0
 11
374.8037690728228
 21
1379.098917439756
 31
0.0
  0
LINE
  5
12D
102
{ACAD_REACTORS
330
203
102
}
330
1F
100
AcDbEntity
  8
1
  6
Continuous
 62
     2
100
AcDbLine
 10
374.0537690728229
 20
1376.671028766172
 30
0.0
 11
374.0537690728229
 21
1375.371990660495
 31
0.0
  0
LINE
  5
12E
102
{ACAD_REACTORS
330
203
102
}
330
1F
100
AcDbEntity
  8
1
  6
Continuous
 62
     2
100
AcDbLine
 10
374.6955158973498
 20
1375.559490660495
 30
0.0
 11
374.0537690728229
 21
1376.671028766172
 31
0.0
  0
LINE
  5
12F
102
{ACAD_REACTORS
330
203
102
}
330
1F
100
AcDbEntity
  8
1
  6
Continuous
 62
     2
100
AcDbLine
 10
375.5537690728229
 20
1376.671028766172
 30
0.0
 11
374.912022248296
 21
1375.559490660495
 31
0.0
  0
LINE
  5
130
102
{ACAD_REACTORS
330
203
102
}
330
1F
100
AcDbEntity
  8
1
  6
Continuous
 62
     2
100
AcDbLine
 10
375.5537690728229
 20
1375.371990660495
 30
0.0
 11
375.5537690728229
 21
1376.671028766172
 31
0.0
  0
LINE
  5
131
330
1F
100
AcDbEntity
  8
0
  6
Continuous
 62
     7
100
AcDbLine
 10
736.4204058877158
 20
1351.28176389102
 30
0.0
 11
736.4204058877158
 21
1359.816374707807
 31
0.0
  0
LINE
  5
132
330
1F
100
AcDbEntity
  8
0
  6
Continuous
 62
     7
100
AcDbLine
 10
734.4204058877158
 20
1350.77288936193
 30
0.0
 11
735.9204058877158
 21
1350.799224275766
 31
0.0
  0
LINE
  5
133
330
1F
100
AcDbEntity
  8
1
  6
Continuous
 62
     7
100
AcDbLine
 10
716.4204058877158
 20
1314.871990660495
 30
0.0
 11
716.4204058877158
 21
1305.871990660495
 31
0.0
  0
LINE
  5
134
330
1F
100
AcDbEntity
  8
1
  6
Continuous
 62
     7
100
AcDbLine
 10
716.4204058877158
 20
1024.871990660495
 30
0.0
 11
716.4204058877158
 21
1015.871990660495
 31
0.0
  0
LINE
  5
135
330
1F
100
AcDbEntity
  8
1
  6
Continuous
 62
     7
100
AcDbLine
 10
735.9204058877158
 20
1360.316374707807
 30
0.0
 11
734.4204058877158
 21
1360.342709621643
 31
0.0
  0
LINE
  5
136
330
1F
100
AcDbEntity
  8
0
  6
Continuous
 62
     7
100
AcDbLine
 10
734.4204058877158
 20
1360.342709621643
 30
0.0
 11
734.4204058877158
 21
1320.371990660495
 31
0.0
  0
LINE
  5
137
330
1F
100
AcDbEntity
  8
1
  6
DOT_CENTER
 62
     2
100
AcDbLine
 10
358.4867611582577
 20
718.6467950359505
 30
0.0
 11
348.9867611582577
 21
718.6467950359505
 31
0.0
  0
LINE
  5
138
330
1F
100
AcDbEntity
  8
1
  6
DOT_CENTER
 62
     2
100
AcDbLine
 10
353.7367611582577
 20
723.3967950359505
 30
0.0
 11
353.7367611582577
 21
713.8967950359505
 31
0.0
  0
LINE
  5
139
330
1F
100
AcDbEntity
  8
1
  6
DOT_CENTER
 62
     2
100
AcDbLine
 10
400.9867611582577
 20
718.6467950359505
 30
0.0
 11
391.4867611582577
 21
718.6467950359505
 31
0.0
  0
LINE
  5
13A
330
1F
100
AcDbEntity
  8
1
  6
DOT_CENTER
 62
     2
100
AcDbLine
 10
396.2367611582577
 20
723.3967950359505
 30
0.0
 11
396.2367611582577
 21
713.8967950359505
 31
0.0
  0
LINE
  5
13B
330
1F
100
AcDbEntity
  8
1
  6
DOT_CENTER
 62
     2
100
AcDbLine
 10
443.4867611582575
 20
718.6467950359505
 30
0.0
 11
433.9867611582575
 21
718.6467950359505
 31
0.0
  0
LINE
  5
13C
330
1F
100
AcDbEntity
  8
1
  6
DOT_CENTER
 62
     2
100
AcDbLine
 10
438.7367611582575
 20
723.3967950359505
 30
0.0
 11
438.7367611582575
 21
713.8967950359505
 31
0.0
  0
LINE
  5
13D
330
1F
100
AcDbEntity
  8
1
  6
DOT_CENTER
 62
     2
100
AcDbLine
 10
358.4867611582577
 20
298.6467950359506
 30
0.0
 11
348.9867611582577
 21
298.6467950359506
 31
0.0
  0
LINE
  5
13E
330
1F
100
AcDbEntity
  8
1
  6
DOT_CENTER
 62
     2
100
AcDbLine
 10
353.7367611582577
 20
303.3967950359506
 30
0.0
 11
353.7367611582577
 21
293.8967950359506
 31
0.0
  0
LINE
  5
13F
330
1F
100
AcDbEntity
  8
1
  6
DOT_CENTER
 62
     2
100
AcDbLine
 10
400.9867611582577
 20
298.6467950359506
 30
0.0
 11
391.4867611582577
 21
298.6467950359506
 31
0.0
  0
LINE
  5
140
330
1F
100
AcDbEntity
  8
1
  6
DOT_CENTER
 62
     2
100
AcDbLine
 10
396.2367611582577
 20
303.3967950359506
 30
0.0
 11
396.2367611582577
 21
293.8967950359506
 31
0.0
  0
LINE
  5
141
330
1F
100
AcDbEntity
  8
1
  6
DOT_CENTER
 62
     2
100
AcDbLine
 10
443.4867611582575
 20
298.6467950359506
 30
0.0
 11
433.9867611582575
 21
298.6467950359506
 31
0.0
  0
LINE
  5
142
330
1F
100
AcDbEntity
  8
1
  6
DOT_CENTER
 62
     2
100
AcDbLine
 10
438.7367611582575
 20
303.3967950359506
 30
0.0
 11
438.7367611582575
 21
293.8967950359506
 31
0.0
  0
LINE
  5
143
330
1F
100
AcDbEntity
  8
0
  6
DASHED
 62
     7
100
AcDbLine
 10
453.7367611582456
 20
290.6457289020455
 30
0.0
 11
453.7367611582456
 21
726.6478611698559
 31
0.0
  0
LINE
  5
144
330
1F
100
AcDbEntity
  8
0
  6
DASHED
 62
     7
100
AcDbLine
 10
338.7367611582457
 20
726.6478611698559
 30
0.0
 11
338.7367611582455
 21
290.6457289020457
 31
0.0
  0
ARC
  5
145
330
1F
100
AcDbEntity
  8
0
  6
Continuous
 62
     7
100
AcDbCircle
 10
453.4367611582456
 20
1316.318901269982
 30
0.0
 40
0.3000000000000748
100
AcDbArc
 50
225.0000000000077
 51
0.0
  0
ARC
  5
146
330
1F
100
AcDbEntity
  8
0
  6
Continuous
 62
     7
100
AcDbCircle
 10
453.4367611582456
 20
1304.422394315389
 30
0.0
 40
0.3000000000000114
100
AcDbArc
 50
0.0
 51
134.9999999999924
  0
ARC
  5
147
330
1F
100
AcDbEntity
  8
1
  6
DASHED
 62
     7
100
AcDbCircle
 10
345.7352538397207
 20
290.6452877174261
 30
0.0
 40
6.998492695381355
100
AcDbArc
 50
179.9963880770037
 51
270.0036119229963
  0
ARC
  5
148
330
1F
100
AcDbEntity
  8
1
  6
Continuous
 62
     7
100
AcDbCircle
 10
345.7352538397207
 20
947.3704833419702
 30
0.0
 40
6.998492695381355
100
AcDbArc
 50
179.9963880770037
 51
270.0036119229963
  0
ARC
  5
149
330
1F
100
AcDbEntity
  8
0
  6
Continuous
 62
     7
100
AcDbCircle
 10
735.9204058877158
 20
1207.29914812335
 30
0.0
 40
0.4999999999997795
100
AcDbArc
 50
271.0000000000022
 51
0.0
  0
ARC
  5
14A
330
1F
100
AcDbEntity
  8
0
  6
Continuous
 62
     7
100
AcDbCircle
 10
735.9204058877158
 20
1215.816450860234
 30
0.0
 40
0.5
100
AcDbArc
 50
0.0
 51
88.99999999999778
  0
ARC
  5
14B
330
1F
100
AcDbEntity
  8
0
  6
Continuous
 62
     7
100
AcDbCircle
 10
397.7367611582578
 20
1375.371990660495
 30
0.0
 40
2.78964051942603
100
AcDbArc
 50
270.0
 51
90.0
  0
ARC
  5
14C
330
1F
100
AcDbEntity
  8
0
  6
Continuous
 62
     7
100
AcDbCircle
 10
394.7367611582578
 20
1375.371990660495
 30
0.0
 40
2.78964051942603
100
AcDbArc
 50
90.0
 51
270.0
  0
ARC
  5
14D
330
1F
100
AcDbEntity
  8
0
  6
Continuous
 62
     7
100
AcDbCircle
 10
355.2367611582582
 20
1375.371990660495
 30
0.0
 40
2.78964051942603
100
AcDbArc
 50
270.0
 51
90.0
  0
ARC
  5
14E
330
1F
100
AcDbEntity
  8
0
  6
Continuous
 62
     7
100
AcDbCircle
 10
352.2367611582582
 20
1375.371990660495
 30
0.0
 40
2.78964051942603
100
AcDbArc
 50
90.0
 51
270.0
  0
ARC
  5
14F
330
1F
100
AcDbEntity
  8
0
  6
Continuous
 62
     7
100
AcDbCircle
 10
453.4367611582456
 20
1026.313364431834
 30
0.0
 40
0.3000000000000748
100
AcDbArc
 50
225.0000000000077
 51
0.0
  0
ARC
  5
150
330
1F
100
AcDbEntity
  8
0
  6
Continuous
 62
     7
100
AcDbCircle
 10
453.4367611582456
 20
1014.425901312139
 30
0.0
 40
0.3000000000000114
100
AcDbArc
 50
0.0
 51
134.9999999999924
  0
ARC
  5
151
330
1F
100
AcDbEntity
  8
0
  6
Continuous
 62
     7
100
AcDbCircle
 10
396.2367611582577
 20
956.8719906604949
 30
0.0
 40
2.789640519425575
100
AcDbArc
 50
0.0
 51
180.0
  0
ARC
  5
152
330
1F
100
AcDbEntity
  8
0
  6
Continuous
 62
     7
100
AcDbCircle
 10
396.2367611582577
 20
953.8719906604949
 30
0.0
 40
2.789640519425689
100
AcDbArc
 50
180.0
 51
0.0
  0
ARC
  5
153
330
1F
100
AcDbEntity
  8
0
  6
Continuous
 62
     7
100
AcDbCircle
 10
438.7367611582577
 20
953.8719906604949
 30
0.0
 40
2.789640519425689
100
AcDbArc
 50
180.0
 51
0.0
  0
ARC
  5
154
330
1F
100
AcDbEntity
  8
0
  6
Continuous
 62
     7
100
AcDbCircle
 10
438.7367611582577
 20
956.8719906604949
 30
0.0
 40
2.789640519425802
100
AcDbArc
 50
0.0
 51
180.0
  0
ARC
  5
155
330
1F
100
AcDbEntity
  8
0
  6
Continuous
 62
     7
100
AcDbCircle
 10
339.0367611582457
 20
1304.422394315389
 30
0.0
 40
0.3000000000000748
100
AcDbArc
 50
45.00000000000767
 51
180.0
  0
ARC
  5
156
330
1F
100
AcDbEntity
  8
0
  6
Continuous
 62
     7
100
AcDbCircle
 10
339.0367611582457
 20
1316.318901269982
 30
0.0
 40
0.3000000000000114
100
AcDbArc
 50
180.0
 51
314.9999999999923
  0
ARC
  5
157
330
1F
100
AcDbEntity
  8
0
  6
Continuous
 62
     7
100
AcDbCircle
 10
339.0367611582457
 20
1026.321554183938
 30
0.0
 40
0.3000000000002387
100
AcDbArc
 50
180.0
 51
314.9999999998388
  0
ARC
  5
158
330
1F
100
AcDbEntity
  8
0
  6
Continuous
 62
     7
100
AcDbCircle
 10
339.0367611582457
 20
1014.42201452085
 30
0.0
 40
0.299999999999914
100
AcDbArc
 50
45.00000000003838
 51
180.0
  0
ARC
  5
159
330
1F
100
AcDbEntity
  8
0
  6
Continuous
 62
     7
100
AcDbCircle
 10
353.7367611582578
 20
956.8719906604949
 30
0.0
 40
2.789640519425689
100
AcDbArc
 50
0.0
 51
180.0
  0
ARC
  5
15A
330
1F
100
AcDbEntity
  8
0
  6
Continuous
 62
     7
100
AcDbCircle
 10
353.7367611582578
 20
953.8719906604949
 30
0.0
 40
2.789640519425802
100
AcDbArc
 50
180.0
 51
0.0
  0
ARC
  5
15B
330
1F
100
AcDbEntity
  8
0
  6
Continuous
 62
     7
100
AcDbCircle
 10
440.2367611582578
 20
1375.371990660495
 30
0.0
 40
2.78964051942603
100
AcDbArc
 50
270.0
 51
90.0
  0
ARC
  5
15C
330
1F
100
AcDbEntity
  8
0
  6
Continuous
 62
     7
100
AcDbCircle
 10
437.2367611582578
 20
1375.371990660495
 30
0.0
 40
2.78964051942603
100
AcDbArc
 50
90.0
 51
270.0
  0
ARC
  5
15D
102
{ACAD_REACTORS
330
201
102
}
330
1F
100
AcDbEntity
  8
1
  6
Continuous
 62
     2
100
AcDbCircle
 10
377.8037690728229
 20
1374.132038617292
 30
0.0
 40
0.2499999999999155
100
AcDbArc
 50
299.981639368858
 51
119.9816393687313
  0
ARC
  5
15E
102
{ACAD_REACTORS
330
201
102
}
330
1F
100
AcDbEntity
  8
1
  6
Continuous
 62
     2
100
AcDbCircle
 10
377.8037690728229
 20
1375.371990660495
 30
0.0
 40
0.25
100
AcDbArc
 50
270.0
 51
90.0
  0
ARC
  5
15F
102
{ACAD_REACTORS
330
201
102
}
330
1F
100
AcDbEntity
  8
1
  6
Continuous
 62
     2
100
AcDbCircle
 10
377.8037690728229
 20
1376.611942703697
 30
0.0
 40
0.2499999999998587
100
AcDbArc
 50
240.0183606311646
 51
60.01836063124615
  0
ARC
  5
160
102
{ACAD_REACTORS
330
204
102
}
330
1F
100
AcDbEntity
  8
1
  6
Continuous
 62
     2
100
AcDbCircle
 10
371.8037690728229
 20
1374.132038617292
 30
0.0
 40
0.25
100
AcDbArc
 50
180.0
 51
0.0
  0
ARC
  5
161
102
{ACAD_REACTORS
330
204
102
}
330
1F
100
AcDbEntity
  8
1
  6
Continuous
 62
     2
100
AcDbCircle
 10
371.8037690728229
 20
1376.611942703697
 30
0.0
 40
0.25
100
AcDbArc
 50
0.0
 51
180.0
  0
ARC
  5
162
102
{ACAD_REACTORS
330
202
102
}
330
1F
100
AcDbEntity
  8
1
  6
Continuous
 62
     2
100
AcDbCircle
 10
374.5537690728229
 20
1372.545500155754
 30
0.0
 40
0.2499999999998587
100
AcDbArc
 50
240.0183606311646
 51
60.01836063111595
  0
ARC
  5
163
102
{ACAD_REACTORS
330
202
102
}
330
1F
100
AcDbEntity
  8
1
  6
Continuous
 62
     2
100
AcDbCircle
 10
372.8037690728229
 20
1377.188865780621
 30
0.0
 40
0.25
100
AcDbArc
 50
0.0
 51
180.0
  0
ARC
  5
164
102
{ACAD_REACTORS
330
203
102
}
330
1F
100
AcDbEntity
  8
1
  6
Continuous
 62
     2
100
AcDbCircle
 10
375.8550444134663
 20
1377.772330423782
 30
0.0
 40
0.1987246593565715
100
AcDbArc
 50
0.0
 51
150.0000000000709
  0
ARC
  5
165
102
{ACAD_REACTORS
330
203
102
}
330
1F
100
AcDbEntity
  8
1
  6
Continuous
 62
     2
100
AcDbCircle
 10
375.8037690728229
 20
1372.978192463446
 30
0.0
 40
0.25
100
AcDbArc
 50
180.0
 51
0.0
  0
ARC
  5
166
102
{ACAD_REACTORS
330
203
102
}
330
1F
100
AcDbEntity
  8
1
  6
Continuous
 62
     2
100
AcDbCircle
 10
373.8037690728229
 20
1374.132679464969
 30
0.0
 40
0.25
100
AcDbArc
 50
180.0
 51
0.0
  0
ARC
  5
167
102
{ACAD_REACTORS
330
203
102
}
330
1F
100
AcDbEntity
  8
1
  6
Continuous
 62
     2
100
AcDbCircle
 10
373.7524937321794
 20
1377.772330423782
 30
0.0
 40
0.1987246593563
100
AcDbArc
 50
29.99999999991272
 51
180.0
  0
ARC
  5
168
330
1F
100
AcDbEntity
  8
1
  6
Continuous
 62
     7
100
AcDbCircle
 10
730.420405887717
 20
1386.127010439325
 30
0.0
 40
3.999999999998749
100
AcDbArc
 50
0.00000006871382
 51
89.00000000023742
  0
ARC
  5
169
330
1F
100
AcDbEntity
  8
1
  6
Continuous
 62
     7
100
AcDbCircle
 10
730.2689071990003
 20
944.7658482285824
 30
0.0
 40
4.154167284546849
100
AcDbArc
 50
273.05381007827
 51
357.9461898637171
  0
ARC
  5
16A
330
1F
100
AcDbEntity
  8
0
  6
Continuous
 62
     7
100
AcDbCircle
 10
735.9204058877158
 20
1359.816374707807
 30
0.0
 40
0.5
100
AcDbArc
 50
0.0
 51
90.0
  0
ARC
  5
16B
330
1F
100
AcDbEntity
  8
0
  6
Continuous
 62
     7
100
AcDbCircle
 10
735.9291360800887
 20
1351.290494083394
 30
0.0
 40
0.4913473721774721
100
AcDbArc
 50
268.9819229161722
 51
358.9819229160642
  0
ARC
  5
16C
330
1F
100
AcDbEntity
  8
0
  6
Continuous
 62
     7
100
AcDbCircle
 10
347.2375228366781
 20
1340.057799491787
 30
0.0
 40
1.399999999999477
100
AcDbArc
 50
90.03347104647193
 51
269.9665289535281
  0
ARC
  5
16D
330
1F
100
AcDbEntity
  8
0
  6
Continuous
 62
     7
100
AcDbCircle
 10
347.2375228366781
 20
1340.057799491787
 30
0.0
 40
1.40000000000016
100
AcDbArc
 50
269.9665289535281
 51
90.03347104647193
  0
CIRCLE
  5
16E
330
1F
100
AcDbEntity
  8
0
  6
Continuous
 62
     7
100
AcDbCircle
 10
353.7367611582582
 20
1375.371990660495
 30
0.0
 40
9.657400217241502
  0
CIRCLE
  5
16F
330
1F
100
AcDbEntity
  8
0
  6
Continuous
 62
     7
100
AcDbCircle
 10
396.2367611582583
 20
1375.371990660495
 30
0.0
 40
9.657400217241445
  0
CIRCLE
  5
170
330
1F
100
AcDbEntity
  8
0
  6
Continuous
 62
     7
100
AcDbCircle
 10
438.7367611582583
 20
1375.371990660495
 30
0.0
 40
9.657400217241502
  0
CIRCLE
  5
171
330
1F
100
AcDbEntity
  8
0
  6
Continuous
 62
     7
100
AcDbCircle
 10
444.7367611582581
 20
1046.057799491787
 30
0.0
 40
1.400000000000091
  0
CIRCLE
  5
172
330
1F
100
AcDbEntity
  8
0
  6
Continuous
 62
     7
100
AcDbCircle
 10
444.7367611582582
 20
1196.057799491787
 30
0.0
 40
1.399999999999977
  0
CIRCLE
  5
173
330
1F
100
AcDbEntity
  8
0
  6
Continuous
 62
     7
100
AcDbCircle
 10
444.7367611582581
 20
991.057799491799
 30
0.0
 40
1.400000000000091
  0
CIRCLE
  5
174
330
1F
100
AcDbEntity
  8
0
  6
Continuous
 62
     7
100
AcDbCircle
 10
347.7367611582582
 20
991.0577994917935
 30
0.0
 40
1.400000000000091
  0
CIRCLE
  5
175
330
1F
100
AcDbEntity
  8
0
  6
Continuous
 62
     7
100
AcDbCircle
 10
347.7367611582582
 20
1046.057799491787
 30
0.0
 40
1.400000000000091
  0
CIRCLE
  5
176
330
1F
100
AcDbEntity
  8
0
  6
Continuous
 62
     7
100
AcDbCircle
 10
347.7367611582582
 20
1196.057799491787
 30
0.0
 40
1.400000000000091
  0
CIRCLE
  5
177
330
1F
100
AcDbEntity
  8
0
  6
Continuous
 62
     7
100
AcDbCircle
 10
348.7367611582453
 20
1211.557799491792
 30
0.0
 40
4.758575216020404
  0
CIRCLE
  5
178
330
1F
100
AcDbEntity
  8
0
  6
Continuous
 62
     7
100
AcDbCircle
 10
353.7367611582578
 20
955.3719906604949
 30
0.0
 40
9.657400217241502
  0
CIRCLE
  5
179
330
1F
100
AcDbEntity
  8
0
  6
Continuous
 62
     7
100
AcDbCircle
 10
443.7367611582578
 20
1211.557799491792
 30
0.0
 40
4.75857521602029
  0
CIRCLE
  5
17A
330
1F
100
AcDbEntity
  8
0
  6
Continuous
 62
     7
100
AcDbCircle
 10
438.7367611582577
 20
955.3719906604949
 30
0.0
 40
9.657400217241388
  0
CIRCLE
  5
17B
330
1F
100
AcDbEntity
  8
0
  6
Continuous
 62
     7
100
AcDbCircle
 10
396.2367611582577
 20
955.3719906604949
 30
0.0
 40
9.657400217241388
  0
CIRCLE
  5
17C
330
1F
100
AcDbEntity
  8
0
  6
Continuous
 62
     7
100
AcDbCircle
 10
445.2367611582423
 20
1340.057799491787
 30
0.0
 40
1.400000000000172
  0
CIRCLE
  5
17D
330
1F
100
AcDbEntity
  8
0
  6
Continuous
 62
     7
100
AcDbCircle
 10
347.236761158258
 20
1246.057799491794
 30
0.0
 40
1.400000000001
  0
CIRCLE
  5
17E
330
1F
100
AcDbEntity
  8
0
  6
Continuous
 62
     7
100
AcDbCircle
 10
445.2367611582581
 20
1246.057799491794
 30
0.0
 40
1.400000000001
  0
CIRCLE
  5
17F
330
1F
100
AcDbEntity
  8
0
  6
Continuous
 62
     7
100
AcDbCircle
 10
348.2367611582577
 20
1355.557799491787
 30
0.0
 40
4.758575216020404
  0
CIRCLE
  5
180
330
1F
100
AcDbEntity
  8
0
  6
Continuous
 62
     7
100
AcDbCircle
 10
444.2367611582577
 20
1355.557799491787
 30
0.0
 40
4.758575216020404
  0
CIRCLE
  5
181
330
1F
100
AcDbEntity
  8
1
  6
DASHED
 62
     7
100
AcDbCircle
 10
353.7367611582577
 20
718.6467950359505
 30
0.0
 40
2.5
  0
CIRCLE
  5
182
330
1F
100
AcDbEntity
  8
1
  6
DASHED
 62
     7
100
AcDbCircle
 10
396.2367611582577
 20
718.6467950359505
 30
0.0
 40
2.5
  0
CIRCLE
  5
183
330
1F
100
AcDbEntity
  8
1
  6
DASHED
 62
     7
100
AcDbCircle
 10
438.7367611582575
 20
718.6467950359505
 30
0.0
 40
2.5
  0
CIRCLE
  5
184
330
1F
100
AcDbEntity
  8
1
  6
DASHED
 62
     7
100
AcDbCircle
 10
353.7367611582577
 20
298.6467950359506
 30
0.0
 40
2.5
  0
CIRCLE
  5
185
330
1F
100
AcDbEntity
  8
1
  6
DASHED
 62
     7
100
AcDbCircle
 10
396.2367611582577
 20
298.6467950359506
 30
0.0
 40
2.5
  0
CIRCLE
  5
186
330
1F
100
AcDbEntity
  8
1
  6
DASHED
 62
     7
100
AcDbCircle
 10
438.7367611582575
 20
298.6467950359506
 30
0.0
 40
2.5
  0
SPLINE
  5
187
330
1F
100
AcDbEntity
  8
0
  6
DASHED
 62
     7
100
AcDbSpline
210
0.0
220
0.0
230
1.0
 70
     8
 71
     3
 72
    15
 73
    11
 74
     9
 42
0.000000001
 43
0.0000000001
 44
0.00000001
 40
0.0
 40
0.0
 40
0.0
 40
0.0
 40
1.372142866321033
 40
2.744210418754029
 40
4.116220329249457
 40
5.488199044232375
 40
6.860177759215409
 40
8.232187669710992
 40
9.604255222144026
 40
10.97639808846506
 40
10.97639808846506
 40
10.97639808846506
 40
10.97639808846506
 10
453.7367611582456
 20
290.6457289020455
 30
0.0
 10
453.7107167811395
 20
290.1876148380007
 30
0.0
 10
453.6586294420515
 20
289.2714118562062
 30
0.0
 10
453.2424943139564
 20
287.9499616855813
 30
0.0
 10
452.595702132082
 20
286.7320497419942
 30
0.0
 10
451.7186227624308
 20
285.6649334317655
 30
0.0
 10
450.6515064522024
 20
284.7878540621145
 30
0.0
 10
449.4335945086149
 20
284.1410618802398
 30
0.0
 10
448.1121443379902
 20
283.7249267521449
 30
0.0
 10
447.1959413561956
 20
283.6728394130569
 30
0.0
 10
446.7378272921508
 20
283.6467950359508
 30
0.0
 11
453.7367611582456
 21
290.6457289020455
 31
0.0
 11
453.6022893042615
 21
289.2801911432065
 31
0.0
 11
453.2040407115302
 21
287.9671917401973
 31
0.0
 11
452.5573126952964
 21
286.7571693965979
 31
0.0
 11
451.6869501861254
 21
285.6966060080712
 31
0.0
 11
450.6263867975986
 21
284.8262434989
 31
0.0
 11
449.4163644539991
 21
284.1795154826661
 31
0.0
 11
448.1033650509898
 21
283.7812668899348
 31
0.0
 11
446.7378272921508
 21
283.6467950359508
 31
0.0
  0
SPLINE
  5
188
330
1F
100
AcDbEntity
  8
0
  6
DASHED
 62
     7
100
AcDbSpline
210
0.0
220
0.0
230
1.0
 70
     8
 71
     3
 72
    15
 73
    11
 74
     9
 42
0.000000001
 43
0.0000000001
 44
0.00000001
 40
0.0
 40
0.0
 40
0.0
 40
0.0
 40
1.372142866321243
 40
2.744210418754184
 40
4.116220329249666
 40
5.488199044232692
 40
6.860177759215718
 40
8.232187669711097
 40
9.604255222144168
 40
10.97639808846531
 40
10.97639808846531
 40
10.97639808846531
 40
10.97639808846531
 10
446.7378272921509
 20
733.6467950359507
 30
0.0
 10
447.1959413561957
 20
733.6207506588446
 30
0.0
 10
448.1121443379903
 20
733.5686633197569
 30
0.0
 10
449.4335945086154
 20
733.152528191662
 30
0.0
 10
450.6515064522022
 20
732.5057360097868
 30
0.0
 10
451.718622762431
 20
731.628656640136
 30
0.0
 10
452.5957021320821
 20
730.5615403299074
 30
0.0
 10
453.2424943139566
 20
729.3436283863203
 30
0.0
 10
453.6586294420515
 20
728.0221782156951
 30
0.0
 10
453.7107167811395
 20
727.1059752339007
 30
0.0
 10
453.7367611582456
 20
726.6478611698559
 30
0.0
 11
446.7378272921509
 21
733.6467950359507
 31
0.0
 11
448.1033650509901
 21
733.5123231819668
 31
0.0
 11
449.4163644539992
 21
733.1140745892355
 31
0.0
 11
450.6263867975987
 21
732.4673465730017
 31
0.0
 11
451.6869501861254
 21
731.5969840638304
 31
0.0
 11
452.5573126952966
 21
730.5364206753037
 31
0.0
 11
453.2040407115304
 21
729.3263983317042
 31
0.0
 11
453.6022893042616
 21
728.013398928695
 31
0.0
 11
453.7367611582456
 21
726.6478611698559
 31
0.0
  0
SPLINE
  5
189
330
1F
100
AcDbEntity
  8
0
  6
DASHED
 62
     7
100
AcDbSpline
210
0.0
220
0.0
230
1.0
 70
     8
 71
     3
 72
    15
 73
    11
 74
     9
 42
0.000000001
 43
0.0000000001
 44
0.00000001
 40
0.0
 40
0.0
 40
0.0
 40
0.0
 40
1.372142866321367
 40
2.744210418754422
 40
4.116220329249753
 40
5.488199044232655
 40
6.860177759215825
 40
8.23218766971125
 40
9.604255222144245
 40
10.97639808846527
 40
10.97639808846527
 40
10.97639808846527
 40
10.97639808846527
 10
338.7367611582457
 20
726.6478611698559
 30
0.0
 10
338.7628055353518
 20
727.1059752339008
 30
0.0
 10
338.8148928744397
 20
728.0221782156952
 30
0.0
 10
339.2310280025346
 20
729.3436283863207
 30
0.0
 10
339.8778201844093
 20
730.5615403299075
 30
0.0
 10
340.7548995540604
 20
731.6286566401361
 30
0.0
 10
341.8220158642887
 20
732.5057360097871
 30
0.0
 10
343.0399278078763
 20
733.1525281916618
 30
0.0
 10
344.3613779785009
 20
733.568663319757
 30
0.0
 10
345.2775809602956
 20
733.6207506588447
 30
0.0
 10
345.7356950243403
 20
733.6467950359508
 30
0.0
 11
338.7367611582457
 21
726.6478611698559
 31
0.0
 11
338.8712330122297
 21
728.0133989286952
 31
0.0
 11
339.2694816049609
 21
729.3263983317045
 31
0.0
 11
339.9162096211948
 21
730.5364206753038
 31
0.0
 11
340.7865721303659
 21
731.5969840638304
 31
0.0
 11
341.8471355188926
 21
732.4673465730019
 31
0.0
 11
343.0571578624921
 21
733.1140745892355
 31
0.0
 11
344.3701572655013
 21
733.5123231819668
 31
0.0
 11
345.7356950243403
 21
733.6467950359508
 31
0.0
  0
SPLINE
  5
18A
330
1F
100
AcDbEntity
  8
0
  6
Continuous
 62
     7
100
AcDbSpline
210
0.0
220
0.0
230
1.0
 70
     8
 71
     3
 72
    15
 73
    11
 74
     9
 42
0.000000001
 43
0.0000000001
 44
0.00000001
 40
0.0
 40
0.0
 40
0.0
 40
0.0
 40
1.372142866321259
 40
2.744210418754363
 40
4.116220329249614
 40
5.488199044232656
 40
6.860177759215565
 40
8.232187669711044
 40
9.604255222144094
 40
10.97639808846529
 40
10.97639808846529
 40
10.97639808846529
 40
10.97639808846529
 10
453.7367611582456
 20
947.3709245265898
 30
0.0
 10
453.7107167811395
 20
946.912810462545
 30
0.0
 10
453.6586294420514
 20
945.9966074807501
 30
0.0
 10
453.2424943139565
 20
944.6751573101255
 30
0.0
 10
452.5957021320818
 20
943.457245366538
 30
0.0
 10
451.7186227624311
 20
942.3901290563098
 30
0.0
 10
450.6515064522025
 20
941.5130496866585
 30
0.0
 10
449.4335945086151
 20
940.8662575047841
 30
0.0
 10
448.1121443379903
 20
940.4501223766888
 30
0.0
 10
447.1959413561956
 20
940.398035037601
 30
0.0
 10
446.7378272921508
 20
940.3719906604949
 30
0.0
 11
453.7367611582456
 21
947.3709245265898
 31
0.0
 11
453.6022893042615
 21
946.0053867677506
 31
0.0
 11
453.2040407115302
 21
944.6923873647413
 31
0.0
 11
452.5573126952965
 21
943.482365021142
 31
0.0
 11
451.6869501861254
 21
942.4218016326151
 31
0.0
 11
450.6263867975987
 21
941.551439123444
 31
0.0
 11
449.4163644539992
 21
940.9047111072102
 31
0.0
 11
448.10336505099
 21
940.5064625144789
 31
0.0
 11
446.7378272921508
 21
940.3719906604949
 31
0.0
  0
SPLINE
  5
18B
330
1F
100
AcDbEntity
  8
0
  6
Continuous
 62
     7
100
AcDbSpline
210
0.0
220
0.0
230
1.0
 70
     8
 71
     3
 72
    15
 73
    11
 74
     9
 42
0.000000001
 43
0.0000000001
 44
0.00000001
 40
0.0
 40
0.0
 40
0.0
 40
0.0
 40
1.372142866321152
 40
2.744210418754202
 40
4.116220329249684
 40
5.48819904423255
 40
6.860177759215927
 40
8.232187669711331
 40
9.604255222143983
 40
10.97639808846501
 40
10.97639808846501
 40
10.97639808846501
 40
10.97639808846501
 10
446.737827292151
 20
1390.371990660495
 30
0.0
 10
447.1959413561959
 20
1390.345946283389
 30
0.0
 10
448.1121443379905
 20
1390.293858944301
 30
0.0
 10
449.4335945086152
 20
1389.877723816206
 30
0.0
 10
450.6515064522025
 20
1389.230931634331
 30
0.0
 10
451.7186227624311
 20
1388.35385226468
 30
0.0
 10
452.5957021320821
 20
1387.286735954451
 30
0.0
 10
453.2424943139565
 20
1386.068824010864
 30
0.0
 10
453.6586294420518
 20
1384.747373840239
 30
0.0
 10
453.7107167811397
 20
1383.831170858445
 30
0.0
 10
453.7367611582457
 20
1383.3730567944
 30
0.0
 11
446.737827292151
 21
1390.371990660495
 31
0.0
 11
448.1033650509901
 21
1390.237518806511
 31
0.0
 11
449.4163644539993
 21
1389.839270213779
 31
0.0
 11
450.6263867975988
 21
1389.192542197546
 31
0.0
 11
451.6869501861254
 21
1388.322179688374
 31
0.0
 11
452.5573126952966
 21
1387.261616299847
 31
0.0
 11
453.2040407115304
 21
1386.051593956248
 31
0.0
 11
453.6022893042617
 21
1384.738594553239
 31
0.0
 11
453.7367611582457
 21
1383.3730567944
 31
0.0
  0
SPLINE
  5
18C
330
1F
100
AcDbEntity
  8
0
  6
Continuous
 62
     7
100
AcDbSpline
210
0.0
220
0.0
230
1.0
 70
     8
 71
     3
 72
    13
 73
     9
 74
     7
 42
0.000000001
 43
0.0000000001
 44
0.00000001
 40
0.0
 40
0.0
 40
0.0
 40
0.0
 40
0.1305262576659304
 40
0.2610531578825999
 40
0.3915811724481053
 40
0.5221104733935427
 40
0.6526408880986755
 40
0.7831719466321969
 40
0.7831719466321969
 40
0.7831719466321969
 40
0.7831719466321969
 10
343.8938447785034
 20
1029.871990660495
 30
0.0
 10
343.8905281081983
 20
1029.915625211904
 30
0.0
 10
343.8838947369704
 20
1030.002894527611
 30
0.0
 10
343.8314171863851
 20
1030.124833899896
 30
0.0
 10
343.7515643781159
 20
1030.229716607471
 30
0.0
 10
343.6466775993914
 20
1030.309566018331
 30
0.0
 10
343.5247339425642
 20
1030.362041108683
 30
0.0
 10
343.4374618794428
 20
1030.368674142535
 30
0.0
 10
343.3938257393104
 20
1030.371990660495
 30
0.0
 11
343.8938447785034
 21
1029.871990660495
 31
0.0
 11
343.8768069141376
 21
1030.001400148545
 31
0.0
 11
343.8268549296275
 21
1030.121990660495
 31
0.0
 11
343.7473924983831
 21
1030.225543956828
 31
0.0
 11
343.6438352589069
 21
1030.305003362387
 31
0.0
 11
343.5232401550649
 21
1030.354953444879
 31
0.0
 11
343.3938257393104
 21
1030.371990660495
 31
0.0
  0
SPLINE
  5
18D
330
1F
100
AcDbEntity
  8
0
  6
Continuous
 62
     7
100
AcDbSpline
210
0.0
220
0.0
230
1.0
 70
     8
 71
     3
 72
    13
 73
     9
 74
     7
 42
0.000000001
 43
0.0000000001
 44
0.00000001
 40
0.0
 40
0.0
 40
0.0
 40
0.0
 40
0.1305262576659304
 40
0.2610531578825781
 40
0.3915811724484097
 40
0.5221104733938471
 40
0.6526408880989454
 40
0.7831719466322681
 40
0.7831719466322681
 40
0.7831719466322681
 40
0.7831719466322681
 10
343.8938447785034
 20
1319.871990660495
 30
0.0
 10
343.8905281081984
 20
1319.915625211904
 30
0.0
 10
343.8838947369703
 20
1320.002894527611
 30
0.0
 10
343.8314171863853
 20
1320.124833899897
 30
0.0
 10
343.7515643781161
 20
1320.229716607471
 30
0.0
 10
343.6466775993916
 20
1320.309566018332
 30
0.0
 10
343.5247339425642
 20
1320.362041108683
 30
0.0
 10
343.4374618794429
 20
1320.368674142535
 30
0.0
 10
343.3938257393106
 20
1320.371990660495
 30
0.0
 11
343.8938447785034
 21
1319.871990660495
 31
0.0
 11
343.8768069141376
 21
1320.001400148545
 31
0.0
 11
343.8268549296275
 21
1320.121990660495
 31
0.0
 11
343.7473924983832
 21
1320.225543956829
 31
0.0
 11
343.643835258907
 21
1320.305003362388
 31
0.0
 11
343.5232401550649
 21
1320.354953444879
 31
0.0
 11
343.3938257393106
 21
1320.371990660495
 31
0.0
  0
SPLINE
  5
18E
330
1F
100
AcDbEntity
  8
0
  6
Continuous
 62
     7
100
AcDbSpline
210
0.0
220
0.0
230
1.0
 70
     8
 71
     3
 72
    13
 73
     9
 74
     7
 42
0.000000001
 43
0.0000000001
 44
0.00000001
 40
0.0
 40
0.0
 40
0.0
 40
0.0
 40
0.1305310585334384
 40
0.2610614732384842
 40
0.3915907741836897
 40
0.5221187887494867
 40
0.6526456889663446
 40
0.7831719466320495
 40
0.7831719466320495
 40
0.7831719466320495
 40
0.7831719466320495
 10
343.3938257393106
 20
1300.371990660495
 30
0.0
 10
343.4374618794429
 20
1300.375307178455
 30
0.0
 10
343.5247339425644
 20
1300.381940212307
 30
0.0
 10
343.6466775993915
 20
1300.434415302659
 30
0.0
 10
343.7515643781163
 20
1300.514264713518
 30
0.0
 10
343.8314171863851
 20
1300.619147421093
 30
0.0
 10
343.8838947369704
 20
1300.741086793379
 30
0.0
 10
343.8905281081983
 20
1300.828356109086
 30
0.0
 10
343.8938447785034
 20
1300.871990660495
 30
0.0
 11
343.3938257393106
 21
1300.371990660495
 31
0.0
 11
343.523240155065
 21
1300.389027876111
 31
0.0
 11
343.643835258907
 21
1300.438977958603
 31
0.0
 11
343.7473924983833
 21
1300.518437364161
 31
0.0
 11
343.8268549296275
 21
1300.621990660495
 31
0.0
 11
343.8768069141376
 21
1300.742581172445
 31
0.0
 11
343.8938447785034
 21
1300.871990660495
 31
0.0
  0
SPLINE
  5
18F
330
1F
100
AcDbEntity
  8
0
  6
Continuous
 62
     7
100
AcDbSpline
210
0.0
220
0.0
230
1.0
 70
     8
 71
     3
 72
    13
 73
     9
 74
     7
 42
0.000000001
 43
0.0000000001
 44
0.00000001
 40
0.0
 40
0.0
 40
0.0
 40
0.0
 40
0.1305310585334799
 40
0.2610614732384477
 40
0.3915907741839993
 40
0.5221187887497407
 40
0.6526456889667254
 40
0.7831719466323176
 40
0.7831719466323176
 40
0.7831719466323176
 40
0.7831719466323176
 10
343.3938257393104
 20
1010.371990660495
 30
0.0
 10
343.4374618794428
 20
1010.375307178455
 30
0.0
 10
343.524733942564
 20
1010.381940212307
 30
0.0
 10
343.6466775993916
 20
1010.434415302658
 30
0.0
 10
343.7515643781159
 20
1010.514264713519
 30
0.0
 10
343.8314171863852
 20
1010.619147421094
 30
0.0
 10
343.8838947369703
 20
1010.741086793379
 30
0.0
 10
343.8905281081983
 20
1010.828356109086
 30
0.0
 10
343.8938447785034
 20
1010.871990660495
 30
0.0
 11
343.3938257393104
 21
1010.371990660495
 31
0.0
 11
343.5232401550648
 21
1010.389027876111
 31
0.0
 11
343.6438352589069
 21
1010.438977958602
 31
0.0
 11
343.7473924983832
 21
1010.518437364161
 31
0.0
 11
343.8268549296275
 21
1010.621990660495
 31
0.0
 11
343.8768069141376
 21
1010.742581172445
 31
0.0
 11
343.8938447785034
 21
1010.871990660495
 31
0.0
  0
SPLINE
  5
190
330
1F
100
AcDbEntity
  8
0
  6
Continuous
 62
     7
100
AcDbSpline
210
0.0
220
0.0
230
1.0
 70
     8
 71
     3
 72
    13
 73
     9
 74
     7
 42
0.000000001
 43
0.0000000001
 44
0.00000001
 40
0.0
 40
0.0
 40
0.0
 40
0.0
 40
0.1305262576655923
 40
0.2610531578830585
 40
0.3915811724486751
 40
0.522110473393995
 40
0.6526408880989447
 40
0.7831719466322822
 40
0.7831719466322822
 40
0.7831719466322822
 40
0.7831719466322822
 10
448.5796775380121
 20
1010.871990660495
 30
0.0
 10
448.5829942083172
 20
1010.828356109086
 30
0.0
 10
448.5896275795454
 20
1010.741086793379
 30
0.0
 10
448.6421051301299
 20
1010.619147421093
 30
0.0
 10
448.7219579383994
 20
1010.514264713518
 30
0.0
 10
448.8268447171239
 20
1010.434415302658
 30
0.0
 10
448.9487883739512
 20
1010.381940212307
 30
0.0
 10
449.0360604370724
 20
1010.375307178455
 30
0.0
 10
449.0796965772048
 20
1010.371990660495
 30
0.0
 11
448.5796775380121
 21
1010.871990660495
 31
0.0
 11
448.5967154023779
 21
1010.742581172445
 31
0.0
 11
448.6466673868879
 21
1010.621990660494
 31
0.0
 11
448.7261298181322
 21
1010.518437364161
 31
0.0
 11
448.8296870576085
 21
1010.438977958602
 31
0.0
 11
448.9502821614505
 21
1010.389027876111
 31
0.0
 11
449.0796965772048
 21
1010.371990660495
 31
0.0
  0
SPLINE
  5
191
330
1F
100
AcDbEntity
  8
0
  6
Continuous
 62
     7
100
AcDbSpline
210
0.0
220
0.0
230
1.0
 70
     8
 71
     3
 72
    13
 73
     9
 74
     7
 42
0.000000001
 43
0.0000000001
 44
0.00000001
 40
0.0
 40
0.0
 40
0.0
 40
0.0
 40
0.1305310585332397
 40
0.261061473238425
 40
0.3915907741839525
 40
0.5221187887493888
 40
0.6526456889662249
 40
0.7831719466319298
 40
0.7831719466319298
 40
0.7831719466319298
 40
0.7831719466319298
 10
449.0796965772048
 20
1030.371990660495
 30
0.0
 10
449.0360604370724
 20
1030.368674142535
 30
0.0
 10
448.9487883739511
 20
1030.362041108683
 30
0.0
 10
448.8268447171241
 20
1030.309566018331
 30
0.0
 10
448.7219579383996
 20
1030.229716607471
 30
0.0
 10
448.6421051301302
 20
1030.124833899896
 30
0.0
 10
448.5896275795452
 20
1030.002894527611
 30
0.0
 10
448.5829942083172
 20
1029.915625211904
 30
0.0
 10
448.5796775380121
 20
1029.871990660495
 30
0.0
 11
449.0796965772048
 21
1030.371990660495
 31
0.0
 11
448.9502821614506
 21
1030.354953444879
 31
0.0
 11
448.8296870576085
 21
1030.305003362387
 31
0.0
 11
448.7261298181322
 21
1030.225543956828
 31
0.0
 11
448.6466673868879
 21
1030.121990660495
 31
0.0
 11
448.5967154023779
 21
1030.001400148545
 31
0.0
 11
448.5796775380121
 21
1029.871990660495
 31
0.0
  0
SPLINE
  5
192
330
1F
100
AcDbEntity
  8
0
  6
Continuous
 62
     7
100
AcDbSpline
210
0.0
220
0.0
230
1.0
 70
     8
 71
     3
 72
    15
 73
    11
 74
     9
 42
0.000000001
 43
0.0000000001
 44
0.00000001
 40
0.0
 40
0.0
 40
0.0
 40
0.0
 40
1.372142866321259
 40
2.744210418754331
 40
4.116220329249509
 40
5.488199044232498
 40
6.860177759215408
 40
8.23218766971094
 40
9.604255222144001
 40
10.97639808846502
 40
10.97639808846502
 40
10.97639808846502
 40
10.97639808846502
 10
338.7367611582458
 20
1383.3730567944
 30
0.0
 10
338.7628055353518
 20
1383.831170858445
 30
0.0
 10
338.81489287444
 20
1384.74737384024
 30
0.0
 10
339.2310280025347
 20
1386.068824010864
 30
0.0
 10
339.8778201844094
 20
1387.286735954452
 30
0.0
 10
340.7548995540606
 20
1388.35385226468
 30
0.0
 10
341.822015864289
 20
1389.230931634331
 30
0.0
 10
343.0399278078763
 20
1389.877723816206
 30
0.0
 10
344.3613779785009
 20
1390.293858944301
 30
0.0
 10
345.2775809602957
 20
1390.345946283389
 30
0.0
 10
345.7356950243404
 20
1390.371990660495
 30
0.0
 11
338.7367611582458
 21
1383.3730567944
 31
0.0
 11
338.8712330122299
 21
1384.738594553239
 31
0.0
 11
339.2694816049611
 21
1386.051593956249
 31
0.0
 11
339.9162096211949
 21
1387.261616299848
 31
0.0
 11
340.786572130366
 21
1388.322179688374
 31
0.0
 11
341.8471355188927
 21
1389.192542197546
 31
0.0
 11
343.0571578624922
 21
1389.839270213779
 31
0.0
 11
344.3701572655014
 21
1390.237518806511
 31
0.0
 11
345.7356950243404
 21
1390.371990660495
 31
0.0
  0
SPLINE
  5
193
330
1F
100
AcDbEntity
  8
0
  6
Continuous
 62
     7
100
AcDbSpline
210
0.0
220
0.0
230
1.0
 70
     8
 71
     3
 72
    13
 73
     9
 74
     7
 42
0.000000001
 43
0.0000000001
 44
0.00000001
 40
0.0
 40
0.0
 40
0.0
 40
0.0
 40
0.130531058533382
 40
0.2610614732383753
 40
0.391590774183626
 40
0.522118788749423
 40
0.6526456889662591
 40
0.783171946631964
 40
0.783171946631964
 40
0.783171946631964
 40
0.783171946631964
 10
449.0796965771807
 20
1300.371990660495
 30
0.0
 10
449.0360604370484
 20
1300.375307178455
 30
0.0
 10
448.9487883739271
 20
1300.381940212307
 30
0.0
 10
448.8268447170998
 20
1300.434415302658
 30
0.0
 10
448.7219579383751
 20
1300.514264713518
 30
0.0
 10
448.6421051301061
 20
1300.619147421093
 30
0.0
 10
448.5896275795212
 20
1300.741086793379
 30
0.0
 10
448.5829942082931
 20
1300.828356109086
 30
0.0
 10
448.579677537988
 20
1300.871990660495
 30
0.0
 11
449.0796965771807
 21
1300.371990660495
 31
0.0
 11
448.9502821614264
 21
1300.389027876111
 31
0.0
 11
448.8296870575844
 21
1300.438977958603
 31
0.0
 11
448.7261298181081
 21
1300.518437364161
 31
0.0
 11
448.6466673868638
 21
1300.621990660495
 31
0.0
 11
448.5967154023538
 21
1300.742581172445
 31
0.0
 11
448.579677537988
 21
1300.871990660495
 31
0.0
  0
SPLINE
  5
194
330
1F
100
AcDbEntity
  8
0
  6
Continuous
 62
     7
100
AcDbSpline
210
0.0
220
0.0
230
1.0
 70
     8
 71
     3
 72
    13
 73
     9
 74
     7
 42
0.000000001
 43
0.0000000001
 44
0.00000001
 40
0.0
 40
0.0
 40
0.0
 40
0.0
 40
0.130526257665923
 40
0.2610531578825707
 40
0.3915811724483331
 40
0.5221104733939057
 40
0.652640888098899
 40
0.7831719466322217
 40
0.7831719466322217
 40
0.7831719466322217
 40
0.7831719466322217
 10
448.579677537988
 20
1319.871990660495
 30
0.0
 10
448.5829942082931
 20
1319.915625211904
 30
0.0
 10
448.5896275795209
 20
1320.002894527611
 30
0.0
 10
448.6421051301064
 20
1320.124833899897
 30
0.0
 10
448.7219579383751
 20
1320.229716607471
 30
0.0
 10
448.8268447170999
 20
1320.309566018332
 30
0.0
 10
448.948788373927
 20
1320.362041108684
 30
0.0
 10
449.0360604370483
 20
1320.368674142535
 30
0.0
 10
449.0796965771807
 20
1320.371990660495
 30
0.0
 11
448.579677537988
 21
1319.871990660495
 31
0.0
 11
448.5967154023538
 21
1320.001400148545
 31
0.0
 11
448.6466673868638
 21
1320.121990660495
 31
0.0
 11
448.726129818108
 21
1320.225543956829
 31
0.0
 11
448.8296870575844
 21
1320.305003362388
 31
0.0
 11
448.9502821614264
 21
1320.354953444879
 31
0.0
 11
449.0796965771807
 21
1320.371990660495
 31
0.0
  0
ARC
  5
195
330
1F
100
AcDbEntity
  8
1
  6
Continuous
 62
     7
100
AcDbCircle
 10
449.2367611582215
 20
1301.353765165263
 30
0.0
 40
0.5
100
AcDbArc
 50
180.0
 51
315.0000000000322
  0
ARC
  5
196
330
1F
100
AcDbEntity
  8
1
  6
Continuous
 62
     7
100
AcDbCircle
 10
449.2367611582215
 20
1319.387530420107
 30
0.0
 40
0.5000000000005266
100
AcDbArc
 50
45.00000000005988
 51
180.0
  0
ARC
  5
197
330
1F
100
AcDbEntity
  8
1
  6
Continuous
 62
     7
100
AcDbCircle
 10
343.2367611582698
 20
1319.387530420107
 30
0.0
 40
0.5
100
AcDbArc
 50
0.0
 51
134.9999999999447
  0
ARC
  5
198
330
1F
100
AcDbEntity
  8
1
  6
Continuous
 62
     7
100
AcDbCircle
 10
343.2367611582698
 20
1301.353765165263
 30
0.0
 40
0.4999999999997629
100
AcDbArc
 50
224.9999999999631
 51
0.0
  0
ARC
  5
199
330
1F
100
AcDbEntity
  8
1
  6
Continuous
 62
     7
100
AcDbCircle
 10
343.2367611582696
 20
1029.390183334063
 30
0.0
 40
0.5
100
AcDbArc
 50
0.0
 51
135.0000000000184
  0
ARC
  5
19A
330
1F
100
AcDbEntity
  8
1
  6
Continuous
 62
     7
100
AcDbCircle
 10
343.2367611582696
 20
1011.353385370724
 30
0.0
 40
0.4999999999997227
100
AcDbArc
 50
224.9999999999862
 51
0.0
  0
ARC
  5
19B
330
1F
100
AcDbEntity
  8
1
  6
Continuous
 62
     7
100
AcDbCircle
 10
449.2367611582456
 20
1029.381993581935
 30
0.0
 40
0.4999999999998835
100
AcDbArc
 50
44.99999999998619
 51
180.0
  0
ARC
  5
19C
330
1F
100
AcDbEntity
  8
1
  6
Continuous
 62
     7
100
AcDbCircle
 10
449.2367611582456
 20
1011.357272162037
 30
0.0
 40
0.5
100
AcDbArc
 50
180.0
 51
315.0000000000231
  0
ARC
  5
19D
102
{ACAD_REACTORS
330
201
102
}
330
1F
100
AcDbEntity
  8
1
  6
Continuous
 62
     2
100
AcDbCircle
 10
376.8037690728229
 20
1373.555115540369
 30
0.0
 40
0.25
100
AcDbArc
 50
180.0
 51
299.981639368884
  0
ARC
  5
19E
102
{ACAD_REACTORS
330
201
102
}
330
1F
100
AcDbEntity
  8
1
  6
Continuous
 62
     2
100
AcDbCircle
 10
376.8037690728229
 20
1377.188865780621
 30
0.0
 40
0.2499999999999155
100
AcDbArc
 50
60.018360631142
 51
180.0
  0
ARC
  5
19F
330
1F
100
AcDbEntity
  8
1
  6
Continuous
 62
     2
100
AcDbCircle
 10
381.0536302224929
 20
1375.371990660495
 30
0.0
 40
0.1249999999999577
100
AcDbArc
 50
299.981639368858
 51
60.018360631142
  0
ARC
  5
1A0
330
1F
100
AcDbEntity
  8
1
  6
Continuous
 62
     2
100
AcDbCircle
 10
368.553907923153
 20
1375.371990660495
 30
0.0
 40
0.1249999999999577
100
AcDbArc
 50
119.981639368858
 51
240.018360631142
  0
ARC
  5
1A1
102
{ACAD_REACTORS
330
202
102
}
330
1F
100
AcDbEntity
  8
1
  6
Continuous
 62
     2
100
AcDbCircle
 10
373.0537690728229
 20
1373.699506521519
 30
0.0
 40
0.5
100
AcDbArc
 50
180.0
 51
240.018360631129
  0
ARC
  5
1A2
102
{ACAD_REACTORS
330
203
102
}
330
1F
100
AcDbEntity
  8
1
  6
Continuous
 62
     2
100
AcDbCircle
 10
374.8037690728229
 20
1375.621990660495
 30
0.0
 40
0.1250000000000102
100
AcDbArc
 50
209.9999999999972
 51
330.0000000000158
  0
MTEXT
  5
1A3
330
1F
100
AcDbEntity
  8
1
 62
     7
100
AcDbMText
 10
396.2367611582455
 20
793.6467950359508
 30
0.0
 40
25.0
 41
0.0
 71
     8
 72
     1
  1
Wall fastening holes
  7
CONVERTER_11
 73
     1
 44
1.32052821128451
  0
DIMENSION
  5
1AF
330
1F
100
AcDbEntity
  8
1
100
AcDbDimension
  2
*D3
 10
513.7367611582456
 20
1390.371990660495
 30
0.0
 11
496.2367611582456
 21
1165.371990660495
 31
0.0
 70
    32
  1
<>
 71
     5
 42
-1.0
 53
90.0
  3
ME10_DIM_10
100
AcDbAlignedDimension
 13
446.7378272921508
 23
940.3719906604949
 33
0.0
 14
446.737827292151
 24
1390.371990660495
 34
0.0
 50
90.0
100
AcDbRotatedDimension
  0
DIMENSION
  5
1BA
330
1F
100
AcDbEntity
  8
1
100
AcDbDimension
  2
*D4
 10
338.7367611582455
 20
880.3719906604948
 30
0.0
 11
396.2367611582455
 21
897.8719906604948
 31
0.0
 70
    32
  1
<>
 71
     5
 42
-1.0
 53
0.00013888888889
  3
ME10_DIM_11
100
AcDbAlignedDimension
 13
453.7367611582456
 23
947.3709245265898
 33
0.0
 14
338.7367611582455
 24
947.3709245265898
 34
0.0
100
AcDbRotatedDimension
  0
DIMENSION
  5
1C7
330
1F
100
AcDbEntity
  8
1
100
AcDbDimension
  2
*D5
 10
716.4204058877158
 20
880.3719906604948
 30
0.0
 11
762.6204058877157
 21
897.8719906604948
 31
0.0
 70
    32
  1
<>
 71
     5
 42
-1.0
 53
0.00013888888889
  3
ME10_DIM_12
100
AcDbAlignedDimension
 13
734.4204058877156
 23
944.6169708777315
 33
0.0
 14
716.4204058877158
 24
940.3719906604949
 34
0.0
100
AcDbRotatedDimension
  0
DIMENSION
  5
1D2
330
1F
100
AcDbEntity
  8
1
100
AcDbDimension
  2
*D6
 10
353.7367611582578
 20
223.6467950359508
 30
0.0
 11
396.2367611582577
 21
241.1467950359508
 31
0.0
 70
    33
  1
<>
 71
     5
 42
-1.0
 53
0.00013888888889
  3
ME10_DIM_13
100
AcDbAlignedDimension
 13
438.7367611582575
 23
293.8967950359506
 33
0.0
 14
353.7367611582577
 24
293.8967950359506
 34
0.0
  0
DIMENSION
  5
1DD
330
1F
100
AcDbEntity
  8
1
100
AcDbDimension
  2
*D7
 10
513.7367611582456
 20
298.6467950359506
 30
0.0
 11
496.2367611582456
 21
508.6467950359506
 31
0.0
 70
    32
  1
<>
 71
     5
 42
-1.0
 53
90.0
  3
ME10_DIM_14
100
AcDbAlignedDimension
 13
443.4867611582575
 23
718.6467950359505
 33
0.0
 14
443.4867611582575
 24
298.6467950359506
 34
0.0
 50
90.0
100
AcDbRotatedDimension
  0
DIMENSION
  5
1EA
330
1F
100
AcDbEntity
  8
1
100
AcDbDimension
  2
*D8
 10
513.7367611582456
 20
718.6467950359505
 30
0.0
 11
496.2367611582456
 21
761.1467950359505
 31
0.0
 70
    32
  1
<>
 71
     5
 42
-1.0
 53
90.0
  3
ME10_DIM_15
100
AcDbAlignedDimension
 13
446.7378272921509
 23
733.6467950359507
 33
0.0
 14
443.4867611582575
 24
718.6467950359505
 34
0.0
 50
90.0
100
AcDbRotatedDimension
  0
DIMENSION
  5
1F7
330
1F
100
AcDbEntity
  8
1
100
AcDbDimension
  2
*D9
 10
438.7367611582576
 20
223.6467950359508
 30
0.0
 11
482.4367611582516
 21
241.1467950359508
 31
0.0
 70
    32
  1
<>
 71
     5
 42
-1.0
 53
0.00013888888889
  3
ME10_DIM_16
100
AcDbAlignedDimension
 13
453.7367611582456
 23
290.6457289020455
 33
0.0
 14
438.7367611582575
 24
293.8967950359506
 34
0.0
100
AcDbRotatedDimension
  0
INSERT
  5
200
330
1F
100
AcDbEntity
  8
1
100
AcDbBlockReference
  2
*D10
 10
0.0
 20
0.0
 30
0.0
  0
HATCH
  5
201
330
1F
100
AcDbEntity
  8
1
  6
Continuous
 62
     2
100
AcDbHatch
 10
0.0
 20
0.0
 30
0.0
210
0.0
220
0.0
230
1.0
  2
_USER
 70
     0
 71
     1
 91
        1
 92
        1
 93
       14
 72
     1
 10
376.9286996861953
 20
1377.405412177133
 11
377.9286996861953
 21
1376.82848910021
 72
     2
 10
377.8037690728229
 20
1376.611942703697
 40
0.2499999999998587
 50
299.9816393687539
 51
479.9816393688355
 73
     0
 72
     1
 10
377.6788384594506
 20
1376.395396307185
 11
377.0537690728229
 21
1376.756013261009
 72
     1
 10
377.0537690728229
 20
1376.756013261009
 11
377.0537690728229
 21
1375.621990660495
 72
     1
 10
377.0537690728229
 20
1375.621990660495
 11
377.8037690728229
 21
1375.621990660495
 72
     2
 10
377.8037690728229
 20
1375.371990660495
 40
0.25
 50
270.0
 51
450.0
 73
     0
 72
     1
 10
377.8037690728229
 20
1375.121990660495
 11
377.0537690728229
 21
1375.121990660495
 72
     1
 10
377.0537690728229
 20
1375.121990660495
 11
377.0537690728229
 21
1373.987968059981
 72
     1
 10
377.0537690728229
 20
1373.987968059981
 11
377.6788384594506
 21
1374.348585013805
 72
     2
 10
377.8037690728229
 20
1374.132038617292
 40
0.2499999999999155
 50
240.0183606312687
 51
420.0183606311419
 73
     0
 72
     1
 10
377.9286996861953
 20
1373.91549222078
 11
376.9286996861953
 21
1373.338569143857
 72
     2
 10
376.8037690728229
 20
1373.555115540369
 40
0.25
 50
60.01836063111595
 51
180.0
 73
     0
 72
     1
 10
376.5537690728229
 20
1373.555115540369
 11
376.5537690728229
 21
1377.188865780621
 72
     2
 10
376.8037690728229
 20
1377.188865780621
 40
0.2499999999999155
 50
180.0
 51
299.981639368858
 73
     0
 97
       14
330
11A
330
15F
330
119
330
118
330
117
330
15E
330
116
330
115
330
114
330
15D
330
113
330
19D
330
112
330
19E
 75
     1
 76
     0
 52
45.0
 41
0.2
 77
     0
 78
     1
 53
45.0
 43
0.0
 44
0.0
 45
-0.1414213562373095
 46
0.1414213562373095
 79
     0
 98
        1
 10
0.0
 20
0.0
  0
HATCH
  5
202
330
1F
100
AcDbEntity
  8
1
  6
Continuous
 62
     2
100
AcDbHatch
 10
0.0
 20
0.0
 30
0.0
210
0.0
220
0.0
230
1.0
  2
_USER
 70
     0
 71
     1
 91
        1
 92
        1
 93
        7
 72
     1
 10
373.0537690728229
 20
1377.188865780621
 11
373.0537690728229
 21
1373.699506521519
 72
     1
 10
373.0537690728229
 20
1373.699506521519
 11
374.6786996861953
 21
1372.762046552266
 72
     2
 10
374.5537690728229
 20
1372.545500155754
 40
0.2499999999998587
 50
299.981639368884
 51
479.9816393688354
 73
     0
 72
     1
 10
374.4288384594506
 20
1372.328953759242
 11
372.8039078460781
 21
1373.266413728495
 72
     2
 10
373.0537690728229
 20
1373.699506521519
 40
0.5
 50
119.981639368871
 51
180.0
 73
     0
 72
     1
 10
372.5537690728229
 20
1373.699506521519
 11
372.5537690728229
 21
1377.188865780621
 72
     2
 10
372.8037690728229
 20
1377.188865780621
 40
0.25
 50
180.0
 51
360.0
 73
     0
 97
        7
330
120
330
11F
330
162
330
11E
330
1A1
330
121
330
163
 75
     1
 76
     0
 52
45.0
 41
0.2
 77
     0
 78
     1
 53
45.0
 43
0.0
 44
0.0
 45
-0.1414213562373095
 46
0.1414213562373095
 79
     0
 98
        1
 10
0.0
 20
0.0
  0
HATCH
  5
203
330
1F
100
AcDbEntity
  8
1
  6
Continuous
 62
     2
100
AcDbHatch
 10
0.0
 20
0.0
 30
0.0
210
0.0
220
0.0
230
1.0
  2
_USER
 70
     0
 71
     1
 91
        1
 92
        1
 93
       16
 72
     1
 10
373.9245943355405
 20
1377.87169275346
 11
374.8037690728229
 21
1376.371990660495
 72
     1
 10
374.8037690728229
 20
1376.371990660495
 11
375.6829438101053
 21
1377.87169275346
 72
     2
 10
375.8550444134663
 20
1377.772330423782
 40
0.1987246593565715
 50
209.9999999999291
 51
360.0
 73
     0
 72
     1
 10
376.0537690728229
 20
1377.772330423782
 11
376.0537690728229
 21
1372.978192463446
 72
     2
 10
375.8037690728229
 20
1372.978192463446
 40
0.25
 50
0.0
 51
180.0
 73
     0
 72
     1
 10
375.5537690728229
 20
1372.978192463446
 11
375.5537690728229
 21
1375.371990660495
 72
     1
 10
375.5537690728229
 20
1375.371990660495
 11
375.5537690728229
 21
1376.671028766172
 72
     1
 10
375.5537690728229
 20
1376.671028766172
 11
374.912022248296
 21
1375.559490660495
 72
     2
 10
374.8037690728229
 20
1375.621990660495
 40
0.1250000000000102
 50
29.99999999998424
 51
150.0000000000027
 73
     0
 72
     1
 10
374.6955158973498
 20
1375.559490660495
 11
374.0537690728229
 21
1376.671028766172
 72
     1
 10
374.0537690728229
 20
1376.671028766172
 11
374.0537690728229
 21
1375.371990660495
 72
     1
 10
374.0537690728229
 20
1375.371990660495
 11
374.0537690728229
 21
1374.132679464969
 72
     2
 10
373.8037690728229
 20
1374.132679464969
 40
0.25
 50
0.0
 51
180.0
 73
     0
 72
     1
 10
373.5537690728229
 20
1374.132679464969
 11
373.5537690728229
 21
1375.371990660495
 72
     1
 10
373.5537690728229
 20
1375.371990660495
 11
373.5537690728229
 21
1377.772330423782
 72
     2
 10
373.7524937321794
 20
1377.772330423782
 40
0.1987246593563
 50
180.0
 51
330.0000000000873
 73
     0
 97
       16
330
127
330
122
330
164
330
123
330
165
330
124
330
130
330
12F
330
1A2
330
12E
330
12D
330
125
330
166
330
126
330
128
330
167
 75
     1
 76
     0
 52
45.0
 41
0.2
 77
     0
 78
     1
 53
45.0
 43
0.0
 44
0.0
 45
-0.1414213562373095
 46
0.1414213562373095
 79
     0
 98
        1
 10
0.0
 20
0.0
  0
HATCH
  5
204
330
1F
100
AcDbEntity
  8
1
  6
Continuous
 62
     2
100
AcDbHatch
 10
0.0
 20
0.0
 30
0.0
210
0.0
220
0.0
230
1.0
  2
_USER
 70
     0
 71
     1
 91
        1
 92
        1
 93
        5
 72
     1
 10
372.0537690728229
 20
1376.611942703697
 11
372.0537690728229
 21
1374.276429598443
 72
     1
 10
372.0537690728229
 20
1374.276429598443
 11
372.0537690728229
 21
1374.132038617292
 72
     2
 10
371.8037690728229
 20
1374.132038617292
 40
0.25
 50
0.0
 51
180.0
 73
     0
 72
     1
 10
371.5537690728229
 20
1374.132038617292
 11
371.5537690728229
 21
1376.611942703697
 72
     2
 10
371.8037690728229
 20
1376.611942703697
 40
0.25
 50
180.0
 51
360.0
 73
     0
 97
        5
330
11D
330
11C
330
160
330
11B
330
161
 75
     1
 76
     0
 52
45.0
 41
0.2
 77
     0
 78
     1
 53
45.0
 43
0.0
 44
0.0
 45
-0.1414213562373095
 46
0.1414213562373095
 79
     0
 98
        1
 10
0.0
 20
0.0
  0
ENDSEC
  0
SECTION
  2
OBJECTS
  0
DICTIONARY
  5
C
330
0
100
AcDbDictionary
281
     1
  3
ACAD_GROUP
350
D
  3
ACAD_LAYOUT
350
1A
  3
ACAD_MATERIAL
350
3B
  3
ACAD_MLEADERSTYLE
350
207
  3
ACAD_MLINESTYLE
350
17
  3
ACAD_PLOTSETTINGS
350
19
  3
ACAD_PLOTSTYLENAME
350
E
  3
ACAD_VISUALSTYLE
350
2A
  3
AcDbVariableDictionary
350
205
  0
DICTIONARY
  5
D
102
{ACAD_REACTORS
330
C
102
}
330
C
100
AcDbDictionary
281
     1
  0
DICTIONARY
  5
1A
102
{ACAD_REACTORS
330
C
102
}
330
C
100
AcDbDictionary
281
     1
  3
Layout1
350
1E
  3
Layout2
350
26
  3
Model
350
22
  0
DICTIONARY
  5
3B
102
{ACAD_REACTORS
330
C
102
}
330
C
100
AcDbDictionary
281
     1
  3
ByBlock
350
3D
  3
ByLayer
350
3C
  3
Global
350
3E
  0
DICTIONARY
  5
207
102
{ACAD_REACTORS
330
C
102
}
330
C
100
AcDbDictionary
281
     1
  0
DICTIONARY
  5
17
102
{ACAD_REACTORS
330
C
102
}
330
C
100
AcDbDictionary
281
     1
  3
Standard
350
18
  0
DICTIONARY
  5
19
102
{ACAD_REACTORS
330
C
102
}
330
C
100
AcDbDictionary
281
     1
  0
ACDBDICTIONARYWDFLT
  5
E
102
{ACAD_REACTORS
330
C
102
}
330
C
100
AcDbDictionary
281
     1
  3
Normal
350
F
100
AcDbDictionaryWithDefault
340
F
  0
DICTIONARY
  5
2A
102
{ACAD_REACTORS
330
C
102
}
330
C
100
AcDbDictionary
281
     1
  3
2dWireframe
350
2F
  3
3D Hidden
350
31
  3
3dWireframe
350
30
  3
Basic
350
32
  3
Brighten
350
36
  3
ColorChange
350
3A
  3
Conceptual
350
34
  3
Dim
350
35
  3
Facepattern
350
39
  3
Flat
350
2B
  3
FlatWithEdges
350
2C
  3
Gouraud
350
2D
  3
GouraudWithEdges
350
2E
  3
Linepattern
350
38
  3
Realistic
350
33
  3
Thicken
350
37
  0
DICTIONARY
  5
205
102
{ACAD_REACTORS
330
C
102
}
330
C
100
AcDbDictionary
281
     1
  3
DIMASSOC
350
208
  3
HIDETEXT
350
209
  0
LAYOUT
  5
1E
102
{ACAD_REACTORS
330
1A
102
}
330
1A
100
AcDbPlotSettings
  1

  2
none_device
  4

  6

 40
0.0
 41
0.0
 42
0.0
 43
0.0
 44
0.0
 45
0.0
 46
0.0
 47
0.0
 48
0.0
 49
0.0
140
0.0
141
0.0
142
1.0
143
1.0
 70
   688
 72
     0
 73
     0
 74
     5
  7

 75
    16
147
1.0
148
0.0
149
0.0
100
AcDbLayout
  1
Layout1
 70
     1
 71
     1
 10
0.0
 20
0.0
 11
12.0
 21
9.0
 12
0.0
 22
0.0
 32
0.0
 14
1.00000000000000E+20
 24
1.00000000000000E+20
 34
1.00000000000000E+20
 15
-1.00000000000000E+20
 25
-1.00000000000000E+20
 35
-1.00000000000000E+20
146
0.0
 13
0.0
 23
0.0
 33
0.0
 16
1.0
 26
0.0
 36
0.0
 17
0.0
 27
1.0
 37
0.0
 76
     0
330
1B
  0
LAYOUT
  5
26
102
{ACAD_REACTORS
330
1A
102
}
330
1A
100
AcDbPlotSettings
  1

  2
none_device
  4

  6

 40
0.0
 41
0.0
 42
0.0
 43
0.0
 44
0.0
 45
0.0
 46
0.0
 47
0.0
 48
0.0
 49
0.0
140
0.0
141
0.0
142
1.0
143
1.0
 70
   688
 72
     0
 73
     0
 74
     5
  7

 75
    16
147
1.0
148
0.0
149
0.0
100
AcDbLayout
  1
Layout2
 70
     1
 71
     2
 10
0.0
 20
0.0
 11
0.0
 21
0.0
 12
0.0
 22
0.0
 32
0.0
 14
0.0
 24
0.0
 34
0.0
 15
0.0
 25
0.0
 35
0.0
146
0.0
 13
0.0
 23
0.0
 33
0.0
 16
1.0
 26
0.0
 36
0.0
 17
0.0
 27
1.0
 37
0.0
 76
     0
330
23
  0
LAYOUT
  5
22
102
{ACAD_REACTORS
330
1A
102
}
330
1A
100
AcDbPlotSettings
  1

  2
none_device
  4

  6

 40
0.0
 41
0.0
 42
0.0
 43
0.0
 44
0.0
 45
0.0
 46
0.0
 47
0.0
 48
0.0
 49
0.0
140
0.0
141
0.0
142
1.0
143
1.0
 70
  1712
 72
     0
 73
     0
 74
     0
  7

 75
     0
147
1.0
148
0.0
149
0.0
100
AcDbLayout
  1
Model
 70
     1
 71
     0
 10
0.0
 20
0.0
 11
12.0
 21
9.0
 12
0.0
 22
0.0
 32
0.0
 14
0.0
 24
0.0
 34
0.0
 15
1050.000000000001
 25
1485.000000000001
 35
0.0
146
0.0
 13
0.0
 23
0.0
 33
0.0
 16
1.0
 26
0.0
 36
0.0
 17
0.0
 27
1.0
 37
0.0
 76
     0
330
1F
331
29
  0
MATERIAL
  5
3D
102
{ACAD_REACTORS
330
3B
102
}
102
{ACAD_XDICTIONARY
360
22C
102
}
330
3B
100
AcDbMaterial
  1
ByBlock
  0
MATERIAL
  5
3C
102
{ACAD_REACTORS
330
3B
102
}
102
{ACAD_XDICTIONARY
360
22A
102
}
330
3B
100
AcDbMaterial
  1
ByLayer
  0
MATERIAL
  5
3E
102
{ACAD_REACTORS
330
3B
102
}
102
{ACAD_XDICTIONARY
360
22E
102
}
330
3B
100
AcDbMaterial
  1
Global
  0
MLINESTYLE
  5
18
102
{ACAD_REACTORS
330
17
102
}
330
17
100
AcDbMlineStyle
  2
Standard
 70
     0
  3

 62
   256
 51
90.0
 52
90.0
 71
     2
 49
0.5
 62
   256
  6
BYLAYER
 49
-0.5
 62
   256
  6
BYLAYER
  0
ACDBPLACEHOLDER
  5
F
102
{ACAD_REACTORS
330
E
102
}
330
E
  0
VISUALSTYLE
  5
2F
102
{ACAD_REACTORS
330
2A
102
}
102
{ACAD_XDICTIONARY
360
212
102
}
330
2A
100
AcDbVisualStyle
  2
2dWireframe
 70
     4
 71
     0
 72
     2
 73
     0
 90
        0
 40
-0.6
 41
-30.0
 62
     5
 63
     7
 74
     1
 91
        4
 64
     7
 65
   257
 75
     1
175
     1
 42
1.0
 92
        0
 66
   257
 43
1.0
 76
     1
 77
     6
 78
     2
 67
     7
 79
     5
170
     0
171
     0
290
     0
174
     0
 93
        1
 44
0.0
173
     0
291
     0
 45
0.0
1001
ACAD
1000
AcDbSavedByObjectVersion
1070
     0
  0
VISUALSTYLE
  5
31
102
{ACAD_REACTORS
330
2A
102
}
102
{ACAD_XDICTIONARY
360
216
102
}
330
2A
100
AcDbVisualStyle
  2
3D Hidden
 70
     6
 71
     1
 72
     2
 73
     2
 90
        0
 40
-0.6
 41
-30.0
 62
     5
 63
     7
 74
     2
 91
        2
 64
     7
 65
   257
 75
     2
175
     1
 42
40.0
 92
        0
 66
   257
 43
1.0
 76
     1
 77
     6
 78
     2
 67
     7
 79
     3
170
     0
171
     0
290
     0
174
     0
 93
        1
 44
0.0
173
     0
291
     0
 45
0.0
1001
ACAD
1000
AcDbSavedByObjectVersion
1070
     0
  0
VISUALSTYLE
  5
30
102
{ACAD_REACTORS
330
2A
102
}
102
{ACAD_XDICTIONARY
360
214
102
}
330
2A
100
AcDbVisualStyle
  2
3dWireframe
 70
     5
 71
     0
 72
     2
 73
     0
 90
        0
 40
-0.6
 41
-30.0
 62
     5
 63
     7
 74
     1
 91
        4
 64
     7
 65
   257
 75
     1
175
     1
 42
1.0
 92
        0
 66
   257
 43
1.0
 76
     1
 77
     6
 78
     2
 67
     7
 79
     5
170
     0
171
     0
290
     0
174
     0
 93
        1
 44
0.0
173
     0
291
     0
 45
0.0
1001
ACAD
1000
AcDbSavedByObjectVersion
1070
     0
  0
VISUALSTYLE
  5
32
102
{ACAD_REACTORS
330
2A
102
}
102
{ACAD_XDICTIONARY
360
218
102
}
330
2A
100
AcDbVisualStyle
  2
Basic
 70
     7
 71
     1
 72
     0
 73
     1
 90
        0
 40
-0.6
 41
-30.0
 62
     5
 63
     7
 74
     0
 91
        4
 64
     7
 65
   257
 75
     1
175
     1
 42
1.0
 92
        8
 66
     7
 43
1.0
 76
     1
 77
     6
 78
     2
 67
     7
 79
     5
170
     0
171
     0
290
     0
174
     0
 93
        1
 44
0.0
173
     0
291
     1
 45
0.0
1001
ACAD
1000
AcDbSavedByObjectVersion
1070
     0
  0
VISUALSTYLE
  5
36
102
{ACAD_REACTORS
330
2A
102
}
102
{ACAD_XDICTIONARY
360
220
102
}
330
2A
100
AcDbVisualStyle
  2
Brighten
 70
    12
 71
     2
 72
     2
 73
     0
 90
        0
 40
-0.6
 41
-30.0
 62
     5
 63
     7
 74
     1
 91
        4
 64
     7
 65
   257
 75
     1
175
     1
 42
1.0
 92
        8
 66
     7
 43
1.0
 76
     1
 77
     6
 78
     2
 67
     7
 79
     5
170
     0
171
     0
290
     0
174
     0
 93
        1
 44
50.0
173
     0
291
     1
 45
0.0
1001
ACAD
1000
AcDbSavedByObjectVersion
1070
     0
  0
VISUALSTYLE
  5
3A
102
{ACAD_REACTORS
330
2A
102
}
102
{ACAD_XDICTIONARY
360
228
102
}
330
2A
100
AcDbVisualStyle
  2
ColorChange
 70
    16
 71
     2
 72
     2
 73
     3
 90
        0
 40
-0.6
 41
-30.0
 62
     5
 63
     8
 74
     1
 91
        4
 64
     7
 65
   257
 75
     1
175
     1
 42
1.0
 92
        8
 66
     8
 43
1.0
 76
     1
 77
     6
 78
     2
 67
     7
 79
     5
170
     0
171
     0
290
     0
174
     0
 93
        1
 44
0.0
173
     0
291
     1
 45
0.0
1001
ACAD
1000
AcDbSavedByObjectVersion
1070
     0
  0
VISUALSTYLE
  5
34
102
{ACAD_REACTORS
330
2A
102
}
102
{ACAD_XDICTIONARY
360
21C
102
}
330
2A
100
AcDbVisualStyle
  2
Conceptual
 70
     9
 71
     3
 72
     2
 73
     0
 90
        0
 40
-0.6
 41
-30.0
 62
     5
 63
     7
 74
     2
 91
        2
 64
     7
 65
   257
 75
     1
175
     1
 42
40.0
 92
        8
 66
     7
 43
1.0
 76
     1
 77
     6
 78
     2
 67
     7
 79
     3
170
     0
171
     0
290
     0
174
     0
 93
        1
 44
0.0
173
     0
291
     0
 45
0.0
1001
ACAD
1000
AcDbSavedByObjectVersion
1070
     0
  0
VISUALSTYLE
  5
35
102
{ACAD_REACTORS
330
2A
102
}
102
{ACAD_XDICTIONARY
360
21E
102
}
330
2A
100
AcDbVisualStyle
  2
Dim
 70
    11
 71
     2
 72
     2
 73
     0
 90
        0
 40
-0.6
 41
-30.0
 62
     5
 63
     7
 74
     1
 91
        4
 64
     7
 65
   257
 75
     1
175
     1
 42
1.0
 92
        8
 66
     7
 43
1.0
 76
     1
 77
     6
 78
     2
 67
     7
 79
     5
170
     0
171
     0
290
     0
174
     0
 93
        1
 44
-50.0
173
     0
291
     1
 45
0.0
1001
ACAD
1000
AcDbSavedByObjectVersion
1070
     0
  0
VISUALSTYLE
  5
39
102
{ACAD_REACTORS
330
2A
102
}
102
{ACAD_XDICTIONARY
360
226
102
}
330
2A
100
AcDbVisualStyle
  2
Facepattern
 70
    15
 71
     2
 72
     2
 73
     0
 90
        0
 40
-0.6
 41
-30.0
 62
     5
 63
     7
 74
     1
 91
        4
 64
     7
 65
   257
 75
     1
175
     1
 42
1.0
 92
        8
 66
     7
 43
1.0
 76
     1
 77
     6
 78
     2
 67
     7
 79
     5
170
     0
171
     0
290
     0
174
     0
 93
        1
 44
0.0
173
     0
291
     1
 45
0.0
1001
ACAD
1000
AcDbSavedByObjectVersion
1070
     0
  0
VISUALSTYLE
  5
2B
102
{ACAD_REACTORS
330
2A
102
}
102
{ACAD_XDICTIONARY
360
20A
102
}
330
2A
100
AcDbVisualStyle
  2
Flat
 70
     0
 71
     2
 72
     1
 73
     1
 90
        2
 40
-0.6
 41
30.0
 62
     5
 63
     7
 74
     0
 91
        4
 64
     7
 65
   257
 75
     1
175
     1
 42
1.0
 92
        8
 66
     7
 43
1.0
 76
     1
 77
     6
 78
     2
 67
     7
 79
     5
170
     0
171
     0
290
     0
174
     0
 93
       13
 44
0.0
173
     0
291
     1
 45
0.0
1001
ACAD
1000
AcDbSavedByObjectVersion
1070
     0
  0
VISUALSTYLE
  5
2C
102
{ACAD_REACTORS
330
2A
102
}
102
{ACAD_XDICTIONARY
360
20C
102
}
330
2A
100
AcDbVisualStyle
  2
FlatWithEdges
 70
     1
 71
     2
 72
     1
 73
     1
 90
        2
 40
-0.6
 41
30.0
 62
     5
 63
     7
 74
     1
 91
        4
 64
     7
 65
   257
 75
     1
175
     1
 42
1.0
 92
        0
 66
   257
 43
1.0
 76
     1
 77
     6
 78
     2
 67
     7
 79
     5
170
     0
171
     0
290
     0
174
     0
 93
       13
 44
0.0
173
     0
291
     1
 45
0.0
1001
ACAD
1000
AcDbSavedByObjectVersion
1070
     0
  0
VISUALSTYLE
  5
2D
102
{ACAD_REACTORS
330
2A
102
}
102
{ACAD_XDICTIONARY
360
20E
102
}
330
2A
100
AcDbVisualStyle
  2
Gouraud
 70
     2
 71
     2
 72
     2
 73
     1
 90
        2
 40
-0.6
 41
30.0
 62
     5
 63
     7
 74
     0
 91
        4
 64
     7
 65
   257
 75
     1
175
     1
 42
1.0
 92
        0
 66
     7
 43
1.0
 76
     1
 77
     6
 78
     2
 67
     7
 79
     5
170
     0
171
     0
290
     0
174
     0
 93
       13
 44
0.0
173
     0
291
     1
 45
0.0
1001
ACAD
1000
AcDbSavedByObjectVersion
1070
     0
  0
VISUALSTYLE
  5
2E
102
{ACAD_REACTORS
330
2A
102
}
102
{ACAD_XDICTIONARY
360
210
102
}
330
2A
100
AcDbVisualStyle
  2
GouraudWithEdges
 70
     3
 71
     2
 72
     2
 73
     1
 90
        2
 40
-0.6
 41
30.0
 62
     5
 63
     7
 74
     1
 91
        4
 64
     7
 65
   257
 75
     1
175
     1
 42
1.0
 92
        0
 66
   257
 43
1.0
 76
     1
 77
     6
 78
     2
 67
     7
 79
     5
170
     0
171
     0
290
     0
174
     0
 93
       13
 44
0.0
173
     0
291
     1
 45
0.0
1001
ACAD
1000
AcDbSavedByObjectVersion
1070
     0
  0
VISUALSTYLE
  5
38
102
{ACAD_REACTORS
330
2A
102
}
102
{ACAD_XDICTIONARY
360
224
102
}
330
2A
100
AcDbVisualStyle
  2
Linepattern
 70
    14
 71
     2
 72
     2
 73
     0
 90
        0
 40
-0.6
 41
-30.0
 62
     5
 63
     7
 74
     1
 91
        4
 64
     7
 65
   257
 75
     7
175
     7
 42
1.0
 92
        8
 66
     7
 43
1.0
 76
     1
 77
     6
 78
     2
 67
     7
 79
     5
170
     0
171
     0
290
     0
174
     0
 93
        1
 44
0.0
173
     0
291
     1
 45
0.0
1001
ACAD
1000
AcDbSavedByObjectVersion
1070
     0
  0
VISUALSTYLE
  5
33
102
{ACAD_REACTORS
330
2A
102
}
102
{ACAD_XDICTIONARY
360
21A
102
}
330
2A
100
AcDbVisualStyle
  2
Realistic
 70
     8
 71
     2
 72
     2
 73
     0
 90
        0
 40
-0.6
 41
-30.0
 62
     5
 63
     7
 74
     1
 91
        0
 64
     7
 65
   257
 75
     1
175
     1
 42
1.0
 92
        8
 66
     8
 43
1.0
 76
     1
 77
     6
 78
     2
 67
     7
 79
     5
170
     0
171
     0
290
     0
174
     0
 93
       13
 44
0.0
173
     0
291
     0
 45
0.0
1001
ACAD
1000
AcDbSavedByObjectVersion
1070
     0
  0
VISUALSTYLE
  5
37
102
{ACAD_REACTORS
330
2A
102
}
102
{ACAD_XDICTIONARY
360
222
102
}
330
2A
100
AcDbVisualStyle
  2
Thicken
 70
    13
 71
     2
 72
     2
 73
     0
 90
        0
 40
-0.6
 41
-30.0
 62
     5
 63
     7
 74
     1
 91
        4
 64
     7
 65
   257
 75
     1
175
     1
 42
1.0
 92
       12
 66
     7
 43
1.0
 76
     1
 77
     6
 78
     2
 67
     7
 79
     5
170
     0
171
     0
290
     0
174
     0
 93
        1
 44
0.0
173
     0
291
     1
 45
0.0
1001
ACAD
1000
AcDbSavedByObjectVersion
1070
     0
  0
DICTIONARYVAR
  5
208
102
{ACAD_REACTORS
330
205
102
}
330
205
100
DictionaryVariables
280
     0
  1
2
  0
DICTIONARYVAR
  5
209
102
{ACAD_REACTORS
330
205
102
}
330
205
100
DictionaryVariables
280
     0
  1
1
  0
DICTIONARY
  5
22C
330
3D
100
AcDbDictionary
280
     1
281
     1
  3
ACAD_XREC_ROUNDTRIP
360
22D
  0
DICTIONARY
  5
22A
330
3C
100
AcDbDictionary
280
     1
281
     1
  3
ACAD_XREC_ROUNDTRIP
360
22B
  0
DICTIONARY
  5
22E
330
3E
100
AcDbDictionary
280
     1
281
     1
  3
ACAD_XREC_ROUNDTRIP
360
22F
  0
DICTIONARY
  5
212
330
2F
100
AcDbDictionary
280
     1
281
     1
  3
ACAD_XREC_ROUNDTRIP
360
213
  0
DICTIONARY
  5
216
330
31
100
AcDbDictionary
280
     1
281
     1
  3
ACAD_XREC_ROUNDTRIP
360
217
  0
DICTIONARY
  5
214
330
30
100
AcDbDictionary
280
     1
281
     1
  3
ACAD_XREC_ROUNDTRIP
360
215
  0
DICTIONARY
  5
218
330
32
100
AcDbDictionary
280
     1
281
     1
  3
ACAD_XREC_ROUNDTRIP
360
219
  0
DICTIONARY
  5
220
330
36
100
AcDbDictionary
280
     1
281
     1
  3
ACAD_XREC_ROUNDTRIP
360
221
  0
DICTIONARY
  5
228
330
3A
100
AcDbDictionary
280
     1
281
     1
  3
ACAD_XREC_ROUNDTRIP
360
229
  0
DICTIONARY
  5
21C
330
34
100
AcDbDictionary
280
     1
281
     1
  3
ACAD_XREC_ROUNDTRIP
360
21D
  0
DICTIONARY
  5
21E
330
35
100
AcDbDictionary
280
     1
281
     1
  3
ACAD_XREC_ROUNDTRIP
360
21F
  0
DICTIONARY
  5
226
330
39
100
AcDbDictionary
280
     1
281
     1
  3
ACAD_XREC_ROUNDTRIP
360
227
  0
DICTIONARY
  5
20A
330
2B
100
AcDbDictionary
280
     1
281
     1
  3
ACAD_XREC_ROUNDTRIP
360
20B
  0
DICTIONARY
  5
20C
330
2C
100
AcDbDictionary
280
     1
281
     1
  3
ACAD_XREC_ROUNDTRIP
360
20D
  0
DICTIONARY
  5
20E
330
2D
100
AcDbDictionary
280
     1
281
     1
  3
ACAD_XREC_ROUNDTRIP
360
20F
  0
DICTIONARY
  5
210
330
2E
100
AcDbDictionary
280
     1
281
     1
  3
ACAD_XREC_ROUNDTRIP
360
211
  0
DICTIONARY
  5
224
330
38
100
AcDbDictionary
280
     1
281
     1
  3
ACAD_XREC_ROUNDTRIP
360
225
  0
DICTIONARY
  5
21A
330
33
100
AcDbDictionary
280
     1
281
     1
  3
ACAD_XREC_ROUNDTRIP
360
21B
  0
DICTIONARY
  5
222
330
37
100
AcDbDictionary
280
     1
281
     1
  3
ACAD_XREC_ROUNDTRIP
360
223
  0
XRECORD
  5
22D
102
{ACAD_REACTORS
330
22C
102
}
330
22C
100
AcDbXrecord
280
     1
102
MATERIAL
148
0.0
149
0.0
149
0.0
 93
        0
 94
      127
282
     0
 72
     1
 77
     1
171
     1
175
     1
179
     1
273
     0
  0
XRECORD
  5
22B
102
{ACAD_REACTORS
330
22A
102
}
330
22A
100
AcDbXrecord
280
     1
102
MATERIAL
148
0.0
149
0.0
149
0.0
 93
        0
 94
      127
282
     0
 72
     1
 77
     1
171
     1
175
     1
179
     1
273
     0
  0
XRECORD
  5
22F
102
{ACAD_REACTORS
330
22E
102
}
330
22E
100
AcDbXrecord
280
     1
102
MATERIAL
148
0.0
149
0.0
149
0.0
 93
        0
 94
      127
282
     0
 72
     1
 77
     1
171
     1
175
     1
179
     1
273
     0
  0
XRECORD
  5
213
102
{ACAD_REACTORS
330
212
102
}
330
212
100
AcDbXrecord
280
     1
102
RTVSPropertyOp0
 70
     1
102
RTVSPropertyOp1
 70
     1
102
RTVSPropertyOp2
 70
     1
102
RTVSPropertyOp3
 70
     1
102
RTVSPropertyOp4
 70
     1
102
RTVSPropertyOp5
 70
     1
102
RTVSPropertyOp6
 70
     1
102
RTVSPropertyOp7
 70
     1
102
RTVSPropertyOp8
 70
     1
102
RTVSPropertyOp9
 70
     1
102
RTVSPropertyOp10
 70
     1
102
RTVSPropertyOp11
 70
     1
102
RTVSPropertyOp12
 70
     1
102
RTVSPropertyOp13
 70
     1
102
RTVSPropertyOp14
 70
     1
102
RTVSPropertyOp15
 70
     1
102
RTVSPropertyOp16
 70
     1
102
RTVSPropertyOp17
 70
     1
102
RTVSPropertyOp18
 70
     1
102
RTVSPropertyOp19
 70
     1
102
RTVSPropertyOp20
 70
     1
102
RTVSPropertyOp21
 70
     1
102
RTVSPropertyOp22
 70
     1
102
RTVSPropertyOp23
 70
     1
102
RTVSPropertyOp24
 70
     1
102
RTVSPropertyOp25
 70
     1
102
RTVSPropertyOp26
 70
     1
102
RTVSPropertyOp27
 70
     1
102
RTVSPropertyOp28
 70
     1
102
RTVSPropertyOp29
 70
     1
102
RTVSPropertyOp30
 70
     1
102
RTVSPropertyOp31
 70
     1
102
RTVSPropertyOp32
 70
     1
  0
XRECORD
  5
217
102
{ACAD_REACTORS
330
216
102
}
330
216
100
AcDbXrecord
280
     1
102
RTVSPropertyOp0
 70
     1
102
RTVSPropertyOp1
 70
     1
102
RTVSPropertyOp2
 70
     1
102
RTVSPropertyOp3
 70
     1
102
RTVSPropertyOp4
 70
     1
102
RTVSPropertyOp5
 70
     1
102
RTVSPropertyOp6
 70
     1
102
RTVSPropertyOp7
 70
     1
102
RTVSPropertyOp8
 70
     1
102
RTVSPropertyOp9
 70
     1
102
RTVSPropertyOp10
 70
     1
102
RTVSPropertyOp11
 70
     1
102
RTVSPropertyOp12
 70
     1
102
RTVSPropertyOp13
 70
     1
102
RTVSPropertyOp14
 70
     1
102
RTVSPropertyOp15
 70
     1
102
RTVSPropertyOp16
 70
     1
102
RTVSPropertyOp17
 70
     1
102
RTVSPropertyOp18
 70
     1
102
RTVSPropertyOp19
 70
     1
102
RTVSPropertyOp20
 70
     1
102
RTVSPropertyOp21
 70
     1
102
RTVSPropertyOp22
 70
     1
102
RTVSPropertyOp23
 70
     1
102
RTVSPropertyOp24
 70
     1
102
RTVSPropertyOp25
 70
     1
102
RTVSPropertyOp26
 70
     1
102
RTVSPropertyOp27
 70
     1
102
RTVSPropertyOp28
 70
     1
102
RTVSPropertyOp29
 70
     1
102
RTVSPropertyOp30
 70
     1
102
RTVSPropertyOp31
 70
     1
102
RTVSPropertyOp32
 70
     1
  0
XRECORD
  5
215
102
{ACAD_REACTORS
330
214
102
}
330
214
100
AcDbXrecord
280
     1
102
RTVSPropertyOp0
 70
     1
102
RTVSPropertyOp1
 70
     1
102
RTVSPropertyOp2
 70
     1
102
RTVSPropertyOp3
 70
     1
102
RTVSPropertyOp4
 70
     1
102
RTVSPropertyOp5
 70
     1
102
RTVSPropertyOp6
 70
     1
102
RTVSPropertyOp7
 70
     1
102
RTVSPropertyOp8
 70
     1
102
RTVSPropertyOp9
 70
     1
102
RTVSPropertyOp10
 70
     1
102
RTVSPropertyOp11
 70
     1
102
RTVSPropertyOp12
 70
     1
102
RTVSPropertyOp13
 70
     1
102
RTVSPropertyOp14
 70
     1
102
RTVSPropertyOp15
 70
     1
102
RTVSPropertyOp16
 70
     1
102
RTVSPropertyOp17
 70
     1
102
RTVSPropertyOp18
 70
     1
102
RTVSPropertyOp19
 70
     1
102
RTVSPropertyOp20
 70
     1
102
RTVSPropertyOp21
 70
     1
102
RTVSPropertyOp22
 70
     1
102
RTVSPropertyOp23
 70
     1
102
RTVSPropertyOp24
 70
     1
102
RTVSPropertyOp25
 70
     1
102
RTVSPropertyOp26
 70
     1
102
RTVSPropertyOp27
 70
     1
102
RTVSPropertyOp28
 70
     1
102
RTVSPropertyOp29
 70
     1
102
RTVSPropertyOp30
 70
     1
102
RTVSPropertyOp31
 70
     1
102
RTVSPropertyOp32
 70
     1
  0
XRECORD
  5
219
102
{ACAD_REACTORS
330
218
102
}
330
218
100
AcDbXrecord
280
     1
102
RTVSPropertyOp0
 70
     1
102
RTVSPropertyOp1
 70
     1
102
RTVSPropertyOp2
 70
     1
102
RTVSPropertyOp3
 70
     1
102
RTVSPropertyOp4
 70
     1
102
RTVSPropertyOp5
 70
     1
102
RTVSPropertyOp6
 70
     1
102
RTVSPropertyOp7
 70
     1
102
RTVSPropertyOp8
 70
     1
102
RTVSPropertyOp9
 70
     1
102
RTVSPropertyOp10
 70
     1
102
RTVSPropertyOp11
 70
     1
102
RTVSPropertyOp12
 70
     1
102
RTVSPropertyOp13
 70
     1
102
RTVSPropertyOp14
 70
     1
102
RTVSPropertyOp15
 70
     1
102
RTVSPropertyOp16
 70
     1
102
RTVSPropertyOp17
 70
     1
102
RTVSPropertyOp18
 70
     1
102
RTVSPropertyOp19
 70
     1
102
RTVSPropertyOp20
 70
     1
102
RTVSPropertyOp21
 70
     1
102
RTVSPropertyOp22
 70
     1
102
RTVSPropertyOp23
 70
     1
102
RTVSPropertyOp24
 70
     1
102
RTVSPropertyOp25
 70
     1
102
RTVSPropertyOp26
 70
     1
102
RTVSPropertyOp27
 70
     1
102
RTVSPropertyOp28
 70
     1
102
RTVSPropertyOp29
 70
     1
102
RTVSPropertyOp30
 70
     1
102
RTVSPropertyOp31
 70
     1
102
RTVSPropertyOp32
 70
     1
  0
XRECORD
  5
221
102
{ACAD_REACTORS
330
220
102
}
330
220
100
AcDbXrecord
280
     1
102
RTVSPropertyOp0
 70
     1
102
RTVSPropertyOp1
 70
     1
102
RTVSPropertyOp2
 70
     1
102
RTVSPropertyOp3
 70
     1
102
RTVSPropertyOp4
 70
     1
102
RTVSPropertyOp5
 70
     1
102
RTVSPropertyOp6
 70
     1
102
RTVSPropertyOp7
 70
     1
102
RTVSPropertyOp8
 70
     1
102
RTVSPropertyOp9
 70
     1
102
RTVSPropertyOp10
 70
     1
102
RTVSPropertyOp11
 70
     1
102
RTVSPropertyOp12
 70
     1
102
RTVSPropertyOp13
 70
     1
102
RTVSPropertyOp14
 70
     1
102
RTVSPropertyOp15
 70
     1
102
RTVSPropertyOp16
 70
     1
102
RTVSPropertyOp17
 70
     1
102
RTVSPropertyOp18
 70
     1
102
RTVSPropertyOp19
 70
     1
102
RTVSPropertyOp20
 70
     1
102
RTVSPropertyOp21
 70
     1
102
RTVSPropertyOp22
 70
     1
102
RTVSPropertyOp23
 70
     1
102
RTVSPropertyOp24
 70
     1
102
RTVSPropertyOp25
 70
     1
102
RTVSPropertyOp26
 70
     1
102
RTVSPropertyOp27
 70
     1
102
RTVSPropertyOp28
 70
     1
102
RTVSPropertyOp29
 70
     1
102
RTVSPropertyOp30
 70
     1
102
RTVSPropertyOp31
 70
     1
102
RTVSPropertyOp32
 70
     1
  0
XRECORD
  5
229
102
{ACAD_REACTORS
330
228
102
}
330
228
100
AcDbXrecord
280
     1
102
RTVSPropertyOp0
 70
     1
102
RTVSPropertyOp1
 70
     1
102
RTVSPropertyOp2
 70
     1
102
RTVSPropertyOp3
 70
     1
102
RTVSPropertyOp4
 70
     1
102
RTVSPropertyOp5
 70
     1
102
RTVSPropertyOp6
 70
     1
102
RTVSPropertyOp7
 70
     1
102
RTVSPropertyOp8
 70
     1
102
RTVSPropertyOp9
 70
     1
102
RTVSPropertyOp10
 70
     1
102
RTVSPropertyOp11
 70
     1
102
RTVSPropertyOp12
 70
     1
102
RTVSPropertyOp13
 70
     1
102
RTVSPropertyOp14
 70
     1
102
RTVSPropertyOp15
 70
     1
102
RTVSPropertyOp16
 70
     1
102
RTVSPropertyOp17
 70
     1
102
RTVSPropertyOp18
 70
     1
102
RTVSPropertyOp19
 70
     1
102
RTVSPropertyOp20
 70
     1
102
RTVSPropertyOp21
 70
     1
102
RTVSPropertyOp22
 70
     1
102
RTVSPropertyOp23
 70
     1
102
RTVSPropertyOp24
 70
     1
102
RTVSPropertyOp25
 70
     1
102
RTVSPropertyOp26
 70
     1
102
RTVSPropertyOp27
 70
     1
102
RTVSPropertyOp28
 70
     1
102
RTVSPropertyOp29
 70
     1
102
RTVSPropertyOp30
 70
     1
102
RTVSPropertyOp31
 70
     1
102
RTVSPropertyOp32
 70
     1
  0
XRECORD
  5
21D
102
{ACAD_REACTORS
330
21C
102
}
330
21C
100
AcDbXrecord
280
     1
102
RTVSPropertyOp0
 70
     1
102
RTVSPropertyOp1
 70
     1
102
RTVSPropertyOp2
 70
     1
102
RTVSPropertyOp3
 70
     1
102
RTVSPropertyOp4
 70
     1
102
RTVSPropertyOp5
 70
     1
102
RTVSPropertyOp6
 70
     1
102
RTVSPropertyOp7
 70
     1
102
RTVSPropertyOp8
 70
     1
102
RTVSPropertyOp9
 70
     1
102
RTVSPropertyOp10
 70
     1
102
RTVSPropertyOp11
 70
     1
102
RTVSPropertyOp12
 70
     1
102
RTVSPropertyOp13
 70
     1
102
RTVSPropertyOp14
 70
     1
102
RTVSPropertyOp15
 70
     1
102
RTVSPropertyOp16
 70
     1
102
RTVSPropertyOp17
 70
     1
102
RTVSPropertyOp18
 70
     1
102
RTVSPropertyOp19
 70
     1
102
RTVSPropertyOp20
 70
     1
102
RTVSPropertyOp21
 70
     1
102
RTVSPropertyOp22
 70
     1
102
RTVSPropertyOp23
 70
     1
102
RTVSPropertyOp24
 70
     1
102
RTVSPropertyOp25
 70
     1
102
RTVSPropertyOp26
 70
     1
102
RTVSPropertyOp27
 70
     1
102
RTVSPropertyOp28
 70
     1
102
RTVSPropertyOp29
 70
     1
102
RTVSPropertyOp30
 70
     1
102
RTVSPropertyOp31
 70
     1
102
RTVSPropertyOp32
 70
     1
  0
XRECORD
  5
21F
102
{ACAD_REACTORS
330
21E
102
}
330
21E
100
AcDbXrecord
280
     1
102
RTVSPropertyOp0
 70
     1
102
RTVSPropertyOp1
 70
     1
102
RTVSPropertyOp2
 70
     1
102
RTVSPropertyOp3
 70
     1
102
RTVSPropertyOp4
 70
     1
102
RTVSPropertyOp5
 70
     1
102
RTVSPropertyOp6
 70
     1
102
RTVSPropertyOp7
 70
     1
102
RTVSPropertyOp8
 70
     1
102
RTVSPropertyOp9
 70
     1
102
RTVSPropertyOp10
 70
     1
102
RTVSPropertyOp11
 70
     1
102
RTVSPropertyOp12
 70
     1
102
RTVSPropertyOp13
 70
     1
102
RTVSPropertyOp14
 70
     1
102
RTVSPropertyOp15
 70
     1
102
RTVSPropertyOp16
 70
     1
102
RTVSPropertyOp17
 70
     1
102
RTVSPropertyOp18
 70
     1
102
RTVSPropertyOp19
 70
     1
102
RTVSPropertyOp20
 70
     1
102
RTVSPropertyOp21
 70
     1
102
RTVSPropertyOp22
 70
     1
102
RTVSPropertyOp23
 70
     1
102
RTVSPropertyOp24
 70
     1
102
RTVSPropertyOp25
 70
     1
102
RTVSPropertyOp26
 70
     1
102
RTVSPropertyOp27
 70
     1
102
RTVSPropertyOp28
 70
     1
102
RTVSPropertyOp29
 70
     1
102
RTVSPropertyOp30
 70
     1
102
RTVSPropertyOp31
 70
     1
102
RTVSPropertyOp32
 70
     1
  0
XRECORD
  5
227
102
{ACAD_REACTORS
330
226
102
}
330
226
100
AcDbXrecord
280
     1
102
RTVSPropertyOp0
 70
     1
102
RTVSPropertyOp1
 70
     1
102
RTVSPropertyOp2
 70
     1
102
RTVSPropertyOp3
 70
     1
102
RTVSPropertyOp4
 70
     1
102
RTVSPropertyOp5
 70
     1
102
RTVSPropertyOp6
 70
     1
102
RTVSPropertyOp7
 70
     1
102
RTVSPropertyOp8
 70
     1
102
RTVSPropertyOp9
 70
     1
102
RTVSPropertyOp10
 70
     1
102
RTVSPropertyOp11
 70
     1
102
RTVSPropertyOp12
 70
     1
102
RTVSPropertyOp13
 70
     1
102
RTVSPropertyOp14
 70
     1
102
RTVSPropertyOp15
 70
     1
102
RTVSPropertyOp16
 70
     1
102
RTVSPropertyOp17
 70
     1
102
RTVSPropertyOp18
 70
     1
102
RTVSPropertyOp19
 70
     1
102
RTVSPropertyOp20
 70
     1
102
RTVSPropertyOp21
 70
     1
102
RTVSPropertyOp22
 70
     1
102
RTVSPropertyOp23
 70
     1
102
RTVSPropertyOp24
 70
     1
102
RTVSPropertyOp25
 70
     1
102
RTVSPropertyOp26
 70
     1
102
RTVSPropertyOp27
 70
     1
102
RTVSPropertyOp28
 70
     1
102
RTVSPropertyOp29
 70
     1
102
RTVSPropertyOp30
 70
     1
102
RTVSPropertyOp31
 70
     1
102
RTVSPropertyOp32
 70
     1
  0
XRECORD
  5
20B
102
{ACAD_REACTORS
330
20A
102
}
330
20A
100
AcDbXrecord
280
     1
102
RTVSPropertyOp0
 70
     1
102
RTVSPropertyOp1
 70
     1
102
RTVSPropertyOp2
 70
     1
102
RTVSPropertyOp3
 70
     1
102
RTVSPropertyOp4
 70
     1
102
RTVSPropertyOp5
 70
     1
102
RTVSPropertyOp6
 70
     1
102
RTVSPropertyOp7
 70
     1
102
RTVSPropertyOp8
 70
     1
102
RTVSPropertyOp9
 70
     1
102
RTVSPropertyOp10
 70
     1
102
RTVSPropertyOp11
 70
     1
102
RTVSPropertyOp12
 70
     1
102
RTVSPropertyOp13
 70
     1
102
RTVSPropertyOp14
 70
     1
102
RTVSPropertyOp15
 70
     1
102
RTVSPropertyOp16
 70
     1
102
RTVSPropertyOp17
 70
     1
102
RTVSPropertyOp18
 70
     1
102
RTVSPropertyOp19
 70
     1
102
RTVSPropertyOp20
 70
     1
102
RTVSPropertyOp21
 70
     1
102
RTVSPropertyOp22
 70
     1
102
RTVSPropertyOp23
 70
     1
102
RTVSPropertyOp24
 70
     1
102
RTVSPropertyOp25
 70
     1
102
RTVSPropertyOp26
 70
     1
102
RTVSPropertyOp27
 70
     1
102
RTVSPropertyOp28
 70
     1
102
RTVSPropertyOp29
 70
     1
102
RTVSPropertyOp30
 70
     1
102
RTVSPropertyOp31
 70
     1
102
RTVSPropertyOp32
 70
     1
  0
XRECORD
  5
20D
102
{ACAD_REACTORS
330
20C
102
}
330
20C
100
AcDbXrecord
280
     1
102
RTVSPropertyOp0
 70
     1
102
RTVSPropertyOp1
 70
     1
102
RTVSPropertyOp2
 70
     1
102
RTVSPropertyOp3
 70
     1
102
RTVSPropertyOp4
 70
     1
102
RTVSPropertyOp5
 70
     1
102
RTVSPropertyOp6
 70
     1
102
RTVSPropertyOp7
 70
     1
102
RTVSPropertyOp8
 70
     1
102
RTVSPropertyOp9
 70
     1
102
RTVSPropertyOp10
 70
     1
102
RTVSPropertyOp11
 70
     1
102
RTVSPropertyOp12
 70
     1
102
RTVSPropertyOp13
 70
     1
102
RTVSPropertyOp14
 70
     1
102
RTVSPropertyOp15
 70
     1
102
RTVSPropertyOp16
 70
     1
102
RTVSPropertyOp17
 70
     1
102
RTVSPropertyOp18
 70
     1
102
RTVSPropertyOp19
 70
     1
102
RTVSPropertyOp20
 70
     1
102
RTVSPropertyOp21
 70
     1
102
RTVSPropertyOp22
 70
     1
102
RTVSPropertyOp23
 70
     1
102
RTVSPropertyOp24
 70
     1
102
RTVSPropertyOp25
 70
     1
102
RTVSPropertyOp26
 70
     1
102
RTVSPropertyOp27
 70
     1
102
RTVSPropertyOp28
 70
     1
102
RTVSPropertyOp29
 70
     1
102
RTVSPropertyOp30
 70
     1
102
RTVSPropertyOp31
 70
     1
102
RTVSPropertyOp32
 70
     1
  0
XRECORD
  5
20F
102
{ACAD_REACTORS
330
20E
102
}
330
20E
100
AcDbXrecord
280
     1
102
RTVSPropertyOp0
 70
     1
102
RTVSPropertyOp1
 70
     1
102
RTVSPropertyOp2
 70
     1
102
RTVSPropertyOp3
 70
     1
102
RTVSPropertyOp4
 70
     1
102
RTVSPropertyOp5
 70
     1
102
RTVSPropertyOp6
 70
     1
102
RTVSPropertyOp7
 70
     1
102
RTVSPropertyOp8
 70
     1
102
RTVSPropertyOp9
 70
     1
102
RTVSPropertyOp10
 70
     1
102
RTVSPropertyOp11
 70
     1
102
RTVSPropertyOp12
 70
     1
102
RTVSPropertyOp13
 70
     1
102
RTVSPropertyOp14
 70
     1
102
RTVSPropertyOp15
 70
     1
102
RTVSPropertyOp16
 70
     1
102
RTVSPropertyOp17
 70
     1
102
RTVSPropertyOp18
 70
     1
102
RTVSPropertyOp19
 70
     1
102
RTVSPropertyOp20
 70
     1
102
RTVSPropertyOp21
 70
     1
102
RTVSPropertyOp22
 70
     1
102
RTVSPropertyOp23
 70
     1
102
RTVSPropertyOp24
 70
     1
102
RTVSPropertyOp25
 70
     1
102
RTVSPropertyOp26
 70
     1
102
RTVSPropertyOp27
 70
     1
102
RTVSPropertyOp28
 70
     1
102
RTVSPropertyOp29
 70
     1
102
RTVSPropertyOp30
 70
     1
102
RTVSPropertyOp31
 70
     1
102
RTVSPropertyOp32
 70
     1
  0
XRECORD
  5
211
102
{ACAD_REACTORS
330
210
102
}
330
210
100
AcDbXrecord
280
     1
102
RTVSPropertyOp0
 70
     1
102
RTVSPropertyOp1
 70
     1
102
RTVSPropertyOp2
 70
     1
102
RTVSPropertyOp3
 70
     1
102
RTVSPropertyOp4
 70
     1
102
RTVSPropertyOp5
 70
     1
102
RTVSPropertyOp6
 70
     1
102
RTVSPropertyOp7
 70
     1
102
RTVSPropertyOp8
 70
     1
102
RTVSPropertyOp9
 70
     1
102
RTVSPropertyOp10
 70
     1
102
RTVSPropertyOp11
 70
     1
102
RTVSPropertyOp12
 70
     1
102
RTVSPropertyOp13
 70
     1
102
RTVSPropertyOp14
 70
     1
102
RTVSPropertyOp15
 70
     1
102
RTVSPropertyOp16
 70
     1
102
RTVSPropertyOp17
 70
     1
102
RTVSPropertyOp18
 70
     1
102
RTVSPropertyOp19
 70
     1
102
RTVSPropertyOp20
 70
     1
102
RTVSPropertyOp21
 70
     1
102
RTVSPropertyOp22
 70
     1
102
RTVSPropertyOp23
 70
     1
102
RTVSPropertyOp24
 70
     1
102
RTVSPropertyOp25
 70
     1
102
RTVSPropertyOp26
 70
     1
102
RTVSPropertyOp27
 70
     1
102
RTVSPropertyOp28
 70
     1
102
RTVSPropertyOp29
 70
     1
102
RTVSPropertyOp30
 70
     1
102
RTVSPropertyOp31
 70
     1
102
RTVSPropertyOp32
 70
     1
  0
XRECORD
  5
225
102
{ACAD_REACTORS
330
224
102
}
330
224
100
AcDbXrecord
280
     1
102
RTVSPropertyOp0
 70
     1
102
RTVSPropertyOp1
 70
     1
102
RTVSPropertyOp2
 70
     1
102
RTVSPropertyOp3
 70
     1
102
RTVSPropertyOp4
 70
     1
102
RTVSPropertyOp5
 70
     1
102
RTVSPropertyOp6
 70
     1
102
RTVSPropertyOp7
 70
     1
102
RTVSPropertyOp8
 70
     1
102
RTVSPropertyOp9
 70
     1
102
RTVSPropertyOp10
 70
     1
102
RTVSPropertyOp11
 70
     1
102
RTVSPropertyOp12
 70
     1
102
RTVSPropertyOp13
 70
     1
102
RTVSPropertyOp14
 70
     1
102
RTVSPropertyOp15
 70
     1
102
RTVSPropertyOp16
 70
     1
102
RTVSPropertyOp17
 70
     1
102
RTVSPropertyOp18
 70
     1
102
RTVSPropertyOp19
 70
     1
102
RTVSPropertyOp20
 70
     1
102
RTVSPropertyOp21
 70
     1
102
RTVSPropertyOp22
 70
     1
102
RTVSPropertyOp23
 70
     1
102
RTVSPropertyOp24
 70
     1
102
RTVSPropertyOp25
 70
     1
102
RTVSPropertyOp26
 70
     1
102
RTVSPropertyOp27
 70
     1
102
RTVSPropertyOp28
 70
     1
102
RTVSPropertyOp29
 70
     1
102
RTVSPropertyOp30
 70
     1
102
RTVSPropertyOp31
 70
     1
102
RTVSPropertyOp32
 70
     1
  0
XRECORD
  5
21B
102
{ACAD_REACTORS
330
21A
102
}
330
21A
100
AcDbXrecord
280
     1
102
RTVSPropertyOp0
 70
     1
102
RTVSPropertyOp1
 70
     1
102
RTVSPropertyOp2
 70
     1
102
RTVSPropertyOp3
 70
     1
102
RTVSPropertyOp4
 70
     1
102
RTVSPropertyOp5
 70
     1
102
RTVSPropertyOp6
 70
     1
102
RTVSPropertyOp7
 70
     1
102
RTVSPropertyOp8
 70
     1
102
RTVSPropertyOp9
 70
     1
102
RTVSPropertyOp10
 70
     1
102
RTVSPropertyOp11
 70
     1
102
RTVSPropertyOp12
 70
     1
102
RTVSPropertyOp13
 70
     1
102
RTVSPropertyOp14
 70
     1
102
RTVSPropertyOp15
 70
     1
102
RTVSPropertyOp16
 70
     1
102
RTVSPropertyOp17
 70
     1
102
RTVSPropertyOp18
 70
     1
102
RTVSPropertyOp19
 70
     1
102
RTVSPropertyOp20
 70
     1
102
RTVSPropertyOp21
 70
     1
102
RTVSPropertyOp22
 70
     1
102
RTVSPropertyOp23
 70
     1
102
RTVSPropertyOp24
 70
     1
102
RTVSPropertyOp25
 70
     1
102
RTVSPropertyOp26
 70
     1
102
RTVSPropertyOp27
 70
     1
102
RTVSPropertyOp28
 70
     1
102
RTVSPropertyOp29
 70
     1
102
RTVSPropertyOp30
 70
     1
102
RTVSPropertyOp31
 70
     1
102
RTVSPropertyOp32
 70
     1
  0
XRECORD
  5
223
102
{ACAD_REACTORS
330
222
102
}
330
222
100
AcDbXrecord
280
     1
102
RTVSPropertyOp0
 70
     1
102
RTVSPropertyOp1
 70
     1
102
RTVSPropertyOp2
 70
     1
102
RTVSPropertyOp3
 70
     1
102
RTVSPropertyOp4
 70
     1
102
RTVSPropertyOp5
 70
     1
102
RTVSPropertyOp6
 70
     1
102
RTVSPropertyOp7
 70
     1
102
RTVSPropertyOp8
 70
     1
102
RTVSPropertyOp9
 70
     1
102
RTVSPropertyOp10
 70
     1
102
RTVSPropertyOp11
 70
     1
102
RTVSPropertyOp12
 70
     1
102
RTVSPropertyOp13
 70
     1
102
RTVSPropertyOp14
 70
     1
102
RTVSPropertyOp15
 70
     1
102
RTVSPropertyOp16
 70
     1
102
RTVSPropertyOp17
 70
     1
102
RTVSPropertyOp18
 70
     1
102
RTVSPropertyOp19
 70
     1
102
RTVSPropertyOp20
 70
     1
102
RTVSPropertyOp21
 70
     1
102
RTVSPropertyOp22
 70
     1
102
RTVSPropertyOp23
 70
     1
102
RTVSPropertyOp24
 70
     1
102
RTVSPropertyOp25
 70
     1
102
RTVSPropertyOp26
 70
     1
102
RTVSPropertyOp27
 70
     1
102
RTVSPropertyOp28
 70
     1
102
RTVSPropertyOp29
 70
     1
102
RTVSPropertyOp30
 70
     1
102
RTVSPropertyOp31
 70
     1
102
RTVSPropertyOp32
 70
     1
  0
ENDSEC
  0
EOF
